💬 Мини-чат

Для тех, кому интересен процесс переделки сайта - https://rips.club/changelog.html (обновлен 22.02.2024)
OldGamerz1M4p9i0, и этот релиз скачался
Adminatomicheart, встал, но у Вас в профиле не видно. Вам бы перекачать.
OldGamerz1M4p9i0, Хан Соло скачался, но релиз, который был на руторе, там аудиодорожек меньше, чем тут, а видеоряд тот же. Попробуйте оттуда, я пока что сидирую.
OldGamerХан Соло откуда-то по чайной ложке в час скачивается, за сутки 50%, наблюдаем-с дальше
Adminatomicheart, завтра посмотрю, он у меня должен быть.
atomicheartРаздайте, пожалуйста, Тихое место: Дилогия / A Quiet Place: Dilogy (2018-2020) UHD-BDRip 1080p [HEVC] 10 bit [HDR] от Mr. Fox
z1M4p9i0Раздайте, пожалуйста, Хан Соло: Звёздные войны. Истории / Solo: A Star Wars Story (2018) [Локализованная версия] BDRip 1080p [HEVC] 10 bit от Cthulhu
z1M4p9i0Раздайте, пожалуйста, Терминатор: Тёмные судьбы / Terminator: Dark Fate (2019) [iTunes] UHD-BDRip 1440p [HEVC] 10 bit от HANNIBAL
OldGamerKeynol, честно говоря, пока что не планировалось, так как у нас есть отличный рип этого фильма
KeynolПриветствую! А можно сделать HEVC 10 bit на Трон Наследие Hybrid ? там файл на 31 гиг :-( на рутрекере. Хороший, но очень массивный..
  • Admin
  • OldGamer
  • BalU
  • bronsonw200
  • Ignat
  • InSpector
  • pmihail99
Отправка сообщений доступна только зарегистрированным/авторизованным пользователям.
Онлайн (за 10 мин.): 7

Tarja Turunen - Act II Dick2 (2018) BDRip 1080p [HEVC] 8 bit от ADVOKAT69

HEVC
8 bit
Обложка Tarja Turunen - Act II Dick2 (2018) BDRip 1080p [HEVC] 8 bit от ADVOKAT69 Год: 2018
Страна:
Жанр: Музыка
Продолжительность: 01:13:38, 00:46:46

Состав:
Tarja Turunen

Описание: Бонусный диск из Ltd.MEDIABOOK - издания. Содержит выступления Тарьи на фестивалях Woodstock и Hellfest

Треклист
Woodstock Festival, Poland, 16th of July, 2016
Against The Odds
No Bitter End
Demons In You
500 Letters
Ciaran’s Well
Supremacy
Calling From The Wild
Tutankhamen-Ever Dream-The Riddler-Slaying The Dreamer
Innocence
Victim Of Ritual
Die Alive
Until My Last Breath
Over The Hills And Far Away


Hellfest, France, June 19, 2016
No Bitter End
Never Enough
Ciaran’s Well
Calling From The Wild
Supremacy
Victim Of Ritual
Tutankhamen-Ever Dream-The Riddler-Slaying The Dreamer
Die Alive
Until My Last Breat

Видео: 1920x1080, 6742 Kbps, 1912x1080, 6259 Kbps
Аудио: DTS, 6 ch, 1509 Kbps
Субтитры: нет

Медиаинфо
Общее
Уникальный идентификатор : 197490037255424236794869631220449907971 (0x94933298FBAE139DB6579A2834299503)
Полное имя : I:\КИНО HEVC\Tarja Turunen - Act II Disc2 HEVC advokat69\Woodstock Festival, Poland, 16th of July, 2016.mkv
Формат : Matroska
Версия формата : Version 4 / Version 2
Размер файла : 4,13 Гбайт
Продолжительность : 1 ч. 11 м.
Общий поток : 8252 Кбит/сек
Дата кодирования : UTC 2018-10-03 06:53:10
Программа кодирования : mkvmerge v9.2.0 ('Photograph') 64bit
Библиотека кодирования : libebml v1.3.3 + libmatroska v1.4.4
Encoding Gui : Hybrid 2017.05.06.1

Видео
Идентификатор : 1
Формат : HEVC
Формат/Информация : High Efficiency Video Coding
Профиль формата : Main@L4.1@High
Идентификатор кодека : V_MPEGH/ISO/HEVC
Продолжительность : 1 ч. 11 м.
Битрейт : 6742 Кбит/сек
Ширина : 1920 пикселей
Высота : 1080 пикселей
Соотношение сторон : 16:9
Режим частоты кадров : Постоянный
Частота кадров : 23,976 (24000/1001) кадра/сек
Цветовое пространство : YUV
Субдискретизация насыщенности : 4:2:0
Битовая глубина : 8 бит
Бит/(Пиксели*Кадры) : 0.136
Размер потока : 3,37 Гбайт (82%)
Библиотека кодирования : x265 2.5+5-0b3ba15b33ea:[Windows][GCC 7.2.0][64 bit] 8bit+10bit+12bit
Настройки программы : cpuid=1050111 / frame-threads=2 / numa-pools=4 / wpp / no-pmode / no-pme / no-psnr / no-ssim / log-level=2 / input-csp=1 / input-res=1920x1080 / interlace=0 / total-frames=0 / level-idc=41 / high-tier=1 / uhd-bd=0 / ref=3 / no-allow-non-conformance / no-repeat-headers / annexb / no-aud / no-hrd / info / hash=0 / no-temporal-layers / open-gop / min-keyint=23 / keyint=250 / bframes=4 / b-adapt=0 / b-pyramid / bframe-bias=0 / rc-lookahead=15 / lookahead-slices=6 / scenecut=40 / no-intra-refresh / ctu=64 / min-cu-size=8 / no-rect / no-amp / max-tu-size=32 / tu-inter-depth=1 / tu-intra-depth=1 / limit-tu=0 / rdoq-level=0 / dynamic-rd=0.00 / no-ssim-rd / signhide / no-tskip / nr-intra=0 / nr-inter=0 / no-constrained-intra / strong-intra-smoothing / max-merge=2 / limit-refs=3 / no-limit-modes / me=1 / subme=2 / merange=57 / temporal-mvp / weightp / no-weightb / no-analyze-src-pics / deblock=-3:-3 / no-sao / no-sao-non-deblock / rd=2 / no-early-skip / rskip / fast-intra / no-tskip-fast / no-cu-lossless / no-b-intra / rdpenalty=0 / psy-rd=2.00 / psy-rdoq=0.00 / no-rd-refine / analysis-reuse-mode=0 / no-lossless / cbqpoffs=0 / crqpoffs=0 / rc=crf / crf=20.0 / qcomp=0.60 / qpstep=4 / stats-write=0 / stats-read=0 / vbv-maxrate=50000 / vbv-bufsize=50000 / vbv-init=0.9 / crf-max=0.0 / crf-min=0.0 / ipratio=1.40 / pbratio=1.30 / aq-mode=1 / aq-strength=1.00 / cutree / zone-count=0 / no-strict-cbr / qg-size=32 / no-rc-grain / qpmax=69 / qpmin=0 / no-const-vbv / sar=0 / overscan=0 / videoformat=5 / range=0 / colorprim=2 / transfer=2 / colormatrix=1 / chromaloc=0 / display-window=0 / max-cll=0,0 / min-luma=0 / max-luma=255 / log2-max-poc-lsb=8 / vui-timing-info / vui-hrd-info / slices=1 / opt-qp-pps / opt-ref-list-length-pps / no-multi-pass-opt-rps / scenecut-bias=0.05 / no-opt-cu-delta-qp / no-aq-motion / no-hdr / no-hdr-opt / no-dhdr10-opt / analysis-reuse-level=5 / scale-factor=0 / refine-intra=0 / refine-inter=0 / refine-mv=0 / no-limit-sao / ctu-info=0
Default : Да
Forced : Да
Цветовой диапазон : Limited
Коэффициенты матрицы : BT.709

Аудио
Идентификатор : 2
Формат : DTS
Формат/Информация : Digital Theater Systems
Идентификатор кодека : A_DTS
Продолжительность : 1 ч. 11 м.
Вид битрейта : Постоянный
Битрейт : 1509 Кбит/сек
Каналы : 6 каналов
Расположение каналов : Front: L C R, Side: L R, LFE
Частота : 48,0 КГц
Частота кадров : 93,750 кадра/сек (512 SPF)
Битовая глубина : 24 бит
Метод сжатия : С потерями
Размер потока : 773 Мбайт (18%)
Default : Да
Forced : Нет

Меню
00:00:00.000 : en:Chapter 1
00:02:45.832 : en:Chapter 2
00:07:14.725 : en:Chapter 3
00:12:05.891 : en:Chapter 4
00:16:27.569 : en:Chapter 5
00:20:17.382 : en:Chapter 6
00:25:35.742 : en:Chapter 7
00:34:39.077 : en:Chapter 8
00:41:32.281 : en:Chapter 9
00:46:32.623 : en:Chapter 10
00:52:53.086 : en:Chapter 11
00:57:04.045 : en:Chapter 12
01:03:52.578 : en:Chapter 13
Загрузка...Cкриншот1 Tarja Turunen - Act II Dick2 (2018) BDRip 1080p [HEVC] 8 bit от ADVOKAT69Загрузка...Cкриншот2 Tarja Turunen - Act II Dick2 (2018) BDRip 1080p [HEVC] 8 bit от ADVOKAT69Загрузка...Cкриншот3 Tarja Turunen - Act II Dick2 (2018) BDRip 1080p [HEVC] 8 bit от ADVOKAT69Загрузка...Cкриншот4 Tarja Turunen - Act II Dick2 (2018) BDRip 1080p [HEVC] 8 bit от ADVOKAT69
Сэмпл Торрент🧲 Магнет

Рейтинги КП и IMDB, кнопки "Позвать в чате" и "Спасибо", а также мультитрекерная статистика доступны только зарегистрированным/авторизованным пользователям!

Файлы: 2
  • Tarja Turunen - Act II Disc2 HEVC advokat69
    • Hellfest, France, June 19, 2016.mkv   2.54 ГБ
    • Woodstock Festival, Poland, 16th of July, 2016.mkv   4.13 ГБ
ADVOKAT69
0500 (2)  6.67 ГБ

Добавление нового комментария

Добавление комментариев доступно только зарегистрированным/авторизованным пользователям.