💬 Мини-чат

Giggaloнет ли у кого в планах "Давайте потанцуем" 2004
GiggaloСообщение удалено (удалил: Giggalo)
StarLordOldGamer, как дела?)
StarLordOldGamer, ура, вернулся 😄
OldGamerRezident, можете скачать этот фильм от другого релизёра, там невелика разница, а раздающие точно есть
OldGamerGiggalo, https://tsya.ru/mnemonic.html
NoMaDСообщение удалено (удалил: NoMaD)
NoMaDСообщение удалено (удалил: NoMaD)
GiggaloСообщение удалено (удалил: Giggalo)
GiggaloСообщение удалено (удалил: Giggalo)
Spartanec1308Был днём
StarLordGiggalo, наверное отрубало беднягу, целый день его нету 😅
GiggaloСообщение удалено (удалил: Giggalo)
OldGamerДоброе. Работы много, некогда на перинах валяться.
GiggaloСообщение удалено (удалил: Giggalo)
GiggaloСообщение удалено (удалил: Giggalo)
  • StarLord
  • Giggalo
  • Andrey_alex
  • DEMMON75
  • donadar
  • litanglong
  • netfigni
Отправка сообщений доступна только зарегистрированным/авторизованным пользователям.
Онлайн (за 10 мин.): 7

Апач / Apache (1954) BDRip 1080p [HEVC] 10 bit от joker63

HEVC
10 bit
Обложка Апач / Apache (1954) BDRip 1080p [HEVC] 10 bit от joker63 Год: 1954
Страна: США
Жанр: Вестерн
Продолжительность: 01:27:22

Режиссер: Роберт Олдрич
В ролях: Бёрт Ланкастер, Джин Питерс, Джон МакИнтайр, Чарльз Бронсон, Джон Денер, Пол Гилфойл, Иан МакДоналд, Уолтер Сэнд, Моррис Анкрум, Монте Блу, Пол Э. Барнс, Лонни Барр, Джон Джордж, Рори Маллинсон, Филип Ван Зандт

Описание: По пути во Флориду из товарного вагона, куда солдаты Соединенных Штатов загрузили пленных индейцев, сумев освободиться от оков, бежит молодой апач по имени Массаи. Красивый мускулистый воин, после долгих испытаний, наконец, достигнув родных степей, вновь берется за оружие, чтобы отомстить своим бледнолицым врагам.


Видео: 1844x1080, 6039 Kbps
Аудио1: AC3, 6 ch, 640 Kbps - РусскийРусский, профессиональный многоголосый (SomeWax)
Аудио2: AC3, 2 ch, 640 Kbps - РусскийРусский, профессиональный многоголосый (Светла)
Аудио3: AC3, 2 ch, 640 Kbps - РусскийРусский, профессиональный двухголосый (НТВ+)
Аудио4: AC3, 2 ch, 640 Kbps - РусскийРусский, профессиональный двухголосый (ДВД Магия)
Субтитры: Нет

Как за пару секунд удалить ненужные аудиодорожки и субтитры (Внимание! После удаления вы не сможете поддержать раздачу)

Медиаинфо
Общее
Уникальный идентификатор : 315749867117066420875653285386636520050 (0xED8B365FF54817AF3663C6A9BAB86A72)
Полное имя : D:\Чарльз Бронсон\Апач Apache (1954)BDRip 1080p [HEVC] 10 bit.mkv
Формат : Matroska
Версия формата : Version 4
Размер файла : 5,25 Гбайт
Продолжительность : 1 ч. 27 м.
Общий поток : 8602 Кбит/сек
Название фильма : Апач_1954_рип_от _Joker63
Дата кодирования : UTC 2018-10-03 14:48:38
Программа кодирования : mkvmerge v27.0.0 ('Metropolis') 64-bit
Библиотека кодирования : libebml v1.3.6 + libmatroska v1.4.9 / Lavf57.71.100
Обложка : Yes
Attachments : cover.jpg
ENCODING_INFO : MPEGTS > MKV 1080p 10-bit / H264 > X265 ABR 6000kbps Medium / AC3 > AC3 CBR 640kbps / AC3 > AC3 CBR 640kbps / AC3 > AC3 CBR 640kbps / AC3 > AC3 CBR 640kbps

Видео
Идентификатор : 1
Формат : HEVC
Формат/Информация : High Efficiency Video Coding
Профиль формата : Main 10@L5.1@Main
Идентификатор кодека : V_MPEGH/ISO/HEVC
Продолжительность : 1 ч. 27 м.
Битрейт : 6039 Кбит/сек
Ширина : 1844 пикселя
Высота : 1080 пикселей
Соотношение сторон : 1,707
Режим частоты кадров : Постоянный
Частота кадров : 23,976 (24000/1001) кадра/сек
Цветовое пространство : YUV
Субдискретизация насыщенности : 4:2:0
Битовая глубина : 10 бит
Бит/(Пиксели*Кадры) : 0.126
Размер потока : 3,69 Гбайт (70%)
Библиотека кодирования : x265 2.8+19-bcdc610cf5f0:[Windows][GCC 7.3.0][64 bit] 10bit
Настройки программы : cpuid=1049583 / frame-threads=5 / numa-pools=4 / wpp / no-pmode / no-pme / no-psnr / no-ssim / log-level=3 / input-csp=1 / input-res=1844x1080 / interlace=0 / total-frames=0 / level-idc=51 / high-tier=1 / uhd-bd=0 / ref=3 / allow-non-conformance / no-repeat-headers / annexb / no-aud / no-hrd / info / hash=0 / no-temporal-layers / open-gop / min-keyint=24 / keyint=240 / gop-lookahead=0 / bframes=6 / b-adapt=2 / b-pyramid / bframe-bias=0 / rc-lookahead=40 / lookahead-slices=6 / scenecut=40 / radl=0 / no-intra-refresh / ctu=64 / min-cu-size=8 / no-rect / no-amp / max-tu-size=32 / tu-inter-depth=1 / tu-intra-depth=1 / limit-tu=0 / rdoq-level=0 / dynamic-rd=0.00 / no-ssim-rd / signhide / no-tskip / nr-intra=0 / nr-inter=0 / no-constrained-intra / strong-intra-smoothing / max-merge=2 / limit-refs=3 / no-limit-modes / me=1 / subme=2 / merange=57 / temporal-mvp / weightp / no-weightb / no-analyze-src-pics / deblock=-3:-3 / sao / no-sao-non-deblock / rd=3 / no-early-skip / rskip / no-fast-intra / no-tskip-fast / no-cu-lossless / no-b-intra / no-splitrd-skip / rdpenalty=0 / psy-rd=2.00 / psy-rdoq=0.00 / no-rd-refine / no-lossless / cbqpoffs=0 / crqpoffs=0 / rc=abr / bitrate=6000 / qcomp=0.50 / qpstep=4 / stats-write=0 / stats-read=0 / ipratio=1.40 / pbratio=1.30 / aq-mode=1 / aq-strength=1.00 / cutree / zone-count=0 / no-strict-cbr / qg-size=32 / no-rc-grain / qpmax=69 / qpmin=0 / no-const-vbv / sar=1 / overscan=0 / videoformat=5 / range=0 / colorprim=1 / transfer=1 / colormatrix=1 / chromaloc=0 / display-window=0 / max-cll=0,0 / min-luma=0 / max-luma=1023 / log2-max-poc-lsb=8 / vui-timing-info / vui-hrd-info / slices=1 / no-opt-qp-pps / no-opt-ref-list-length-pps / no-multi-pass-opt-rps / scenecut-bias=0.05 / no-opt-cu-delta-qp / no-aq-motion / no-hdr / no-hdr-opt / no-dhdr10-opt / no-idr-recovery-sei / analysis-reuse-level=5 / scale-factor=0 / refine-intra=0 / refine-inter=0 / refine-mv=0 / no-limit-sao / ctu-info=0 / no-lowpass-dct / refine-mv-type=0 / copy-pic=1 / max-ausize-factor=1.0 / no-dynamic-refine / no-single-sei
Default : Да
Forced : Нет
Цветовой диапазон : Limited
Основные цвета : BT.709
Характеристики трансфера : BT.709
Коэффициенты матрицы : BT.709

Аудио #1
Идентификатор : 2
Формат : AC-3
Формат/Информация : Audio Coding 3
Коммерческое название : Dolby Digital
Идентификатор кодека : A_AC3
Продолжительность : 1 ч. 27 м.
Вид битрейта : Постоянный
Битрейт : 640 Кбит/сек
Каналы : 6 каналов
Channel layout : L R C LFE Ls Rs
Частота : 48,0 КГц
Частота кадров : 31,250 кадров/сек (1536 SPF)
Битовая глубина : 16 бит
Метод сжатия : С потерями
Размер потока : 400 Мбайт (7%)
Заголовок : MVO, SomeWax
Язык : Russian
ServiceKind/String : Complete Main
Default : Да
Forced : Нет

Аудио #2
Идентификатор : 3
Формат : AC-3
Формат/Информация : Audio Coding 3
Коммерческое название : Dolby Digital
Идентификатор кодека : A_AC3
Продолжительность : 1 ч. 27 м.
Вид битрейта : Постоянный
Битрейт : 640 Кбит/сек
Каналы : 2 канала
Channel layout : L R
Частота : 48,0 КГц
Частота кадров : 31,250 кадров/сек (1536 SPF)
Битовая глубина : 16 бит
Метод сжатия : С потерями
Размер потока : 400 Мбайт (7%)
Заголовок : MVO, Светла
Язык : Russian
ServiceKind/String : Complete Main
Default : Нет
Forced : Нет

Аудио #3
Идентификатор : 4
Формат : AC-3
Формат/Информация : Audio Coding 3
Коммерческое название : Dolby Digital
Идентификатор кодека : A_AC3
Продолжительность : 1 ч. 27 м.
Вид битрейта : Постоянный
Битрейт : 640 Кбит/сек
Каналы : 2 канала
Channel layout : L R
Частота : 48,0 КГц
Частота кадров : 31,250 кадров/сек (1536 SPF)
Битовая глубина : 16 бит
Метод сжатия : С потерями
Размер потока : 400 Мбайт (7%)
Заголовок : DVO, НТВ+
Язык : Russian
ServiceKind/String : Complete Main
Default : Нет
Forced : Нет

Аудио #4
Идентификатор : 5
Формат : AC-3
Формат/Информация : Audio Coding 3
Коммерческое название : Dolby Digital
Идентификатор кодека : A_AC3
Продолжительность : 1 ч. 27 м.
Вид битрейта : Постоянный
Битрейт : 640 Кбит/сек
Каналы : 2 канала
Channel layout : L R
Частота : 48,0 КГц
Частота кадров : 31,250 кадров/сек (1536 SPF)
Битовая глубина : 16 бит
Метод сжатия : С потерями
Размер потока : 400 Мбайт (7%)
Заголовок : DVO, ДВД Магия
Язык : Russian
ServiceKind/String : Complete Main
Default : Нет
Forced : Нет
Загрузка...Cкриншот1 Апач / Apache (1954) BDRip 1080p [HEVC] 10 bit от joker63Загрузка...Cкриншот2 Апач / Apache (1954) BDRip 1080p [HEVC] 10 bit от joker63Загрузка...Cкриншот3 Апач / Apache (1954) BDRip 1080p [HEVC] 10 bit от joker63Загрузка...Cкриншот4 Апач / Apache (1954) BDRip 1080p [HEVC] 10 bit от joker63
Сэмпл Торрент🧲 Магнет

Рейтинги КП и IMDB, кнопки "Позвать в чате" и "Спасибо", а также мультитрекерная статистика доступны только зарегистрированным/авторизованным пользователям!

Файлы: 1
  • Апач Apache (1954)BDRip 1080p [HEVC] 10 bit.mkv   5.25 ГБ
Поблагодарили: 2
gthley, Korbis
joker63
723005.25 ГБ

Добавление нового комментария

Добавление комментариев доступно только зарегистрированным/авторизованным пользователям.
Аватар не указан
  Algabas  
Еще бы кто раздал(((
Аватар не указан
  Algabas  
joker63 писал(а):
Ну Там где Чингачгук,хронологии нет,там только 2 пары,"След Сокола"и продолжение "Белые волки",а также "Апачи"и 2й "Ульзана".А про Виннету такая хронология 1.Сокров Сер.озера.2.Золото апачей.3.Виннету сые Инчучуна.4.Вождь апачей.5.Среди коршунов.6.Винету3.7.Нефтяной король.8.Верная рука.9.Полукровка Апаначи.10.Громовержец и Виннету.11.Виннету в долине смерти.
Благодарю!
Аватар joker63
  joker63  
Ну Там где Чингачгук,хронологии нет,там только 2 пары,"След Сокола"и продолжение "Белые волки",а также "Апачи"и 2й "Ульзана".А про Виннету такая хронология 1.Сокров Сер.озера.2.Золото апачей.3.Виннету сые Инчучуна.4.Вождь апачей.5.Среди коршунов.6.Винету3.7.Нефтяной король.8.Верная рука.9.Полукровка Апаначи.10.Громовержец и Виннету.11.Виннету в долине смерти.
Аватар не указан
  Algabas  
joker63, подскажи.
Есть ли какая-то хронологическая последовательность в просмотре этих фильмов по индейской тематике (Верная Рука, Чингачгук, Виннету)?
Аватар не указан
  Algabas  
Да, joker63 нашел свою нишу)))
Спасибо за данную тематику. Собираю в коллекцию.
Аватар joker63
  joker63  
Абажаю)Индейцев)
Аватар Атения
  Атения  
Про индейцев наверное интересно! 😋