💬 Мини-чат

Giggaloнет ли у кого в планах "Давайте потанцуем" 2004
GiggaloСообщение удалено (удалил: Giggalo)
StarLordOldGamer, как дела?)
StarLordOldGamer, ура, вернулся 😄
OldGamerRezident, можете скачать этот фильм от другого релизёра, там невелика разница, а раздающие точно есть
OldGamerGiggalo, https://tsya.ru/mnemonic.html
NoMaDСообщение удалено (удалил: NoMaD)
NoMaDСообщение удалено (удалил: NoMaD)
GiggaloСообщение удалено (удалил: Giggalo)
GiggaloСообщение удалено (удалил: Giggalo)
Spartanec1308Был днём
StarLordGiggalo, наверное отрубало беднягу, целый день его нету 😅
GiggaloСообщение удалено (удалил: Giggalo)
OldGamerДоброе. Работы много, некогда на перинах валяться.
GiggaloСообщение удалено (удалил: Giggalo)
GiggaloСообщение удалено (удалил: Giggalo)
  • qvnvqygospcocittov
  • Rezident
  • Shok
  • Херсонец
Отправка сообщений доступна только зарегистрированным/авторизованным пользователям.
Онлайн (за 10 мин.): 4

На несколько долларов больше / Per qualche dollaro in più (1965) BDRip 1080p [HEVC] 10 bit от joker63

HEVC
10 bit
Обложка На несколько долларов больше / Per qualche dollaro in più (1965) BDRip 1080p [HEVC] 10 bit от joker63 Год: 1965
Страна: Италия, Испания, Германия (ФРГ)
Жанр: Вестерн, Драма
Продолжительность: 02:11:42

Режиссер: Серджио Леоне
В ролях: Клинт Иствуд, Ли Ван Клиф, Джан Мария Волонте, Мара Крупп, Луиджи Пистилли, Клаус Кински, Йозеф Эггер, Панос Пападопулос, Бенито Стефанелли, Роберто Камардьель

Описание: Заработать несколько лишних долларов честным путем на диком Западе не проблема, если у тебя есть проверенный кольт и разрешение властей на отстрел бандитов. Этим путем и идут бок о бок профессиональные охотники за головами негодяев «Человек без имени» и полковник Мортимер, общая цель которых — преступная банда мексиканца Индио.


Видео: 1920x814, 6021 Kbps
Аудио1: AC3, 6 ch, 640 Kbps - РусскийРусский, Двухголосый (CEE)
Аудио2: AC3, 6 ch, 640 Kbps - РусскийРусский, Многоголосый (Somewax)
Аудио3: AC3, 2 ch, 640 Kbps - РусскийРусский, Многоголосый
Аудио4: AC3, 2 ch, 640 Kbps - РусскийРусский, Многоголосый (ОРТ)
Аудио5: AC3, 2 ch, 640 Kbps - РусскийРусский, Многоголосый (5 канал)
Аудио6: AC3, 2 ch, 640 Kbps - РусскийРусский, Двухголосый (Союз - Совенчер)
Аудио7: AC3, 2 ch, 640 Kbps - РусскийРусский, Двухголосый (Гланц и Королёва)
Аудио8: AC3, 6 ch, 640 Kbps - РусскийРусский, Одноголосый (Пучков - Гоблин)
Аудио9: AC3, 6 ch, 640 Kbps - РусскийРусский, Одноголосый (Горчаков)
Аудио10: AC3, 2 ch, 640 Kbps - РусскийРусский, Одноголосый (Гаврилов)
Аудио11: AC3, 2 ch, 640 Kbps - РусскийРусский, Одноголосый (Марченко)
Аудио12: AC3, 2 ch, 640 Kbps - РусскийРусский, Одноголосый
Аудио13: AC3, 2 ch, 640 Kbps - АнглийскийАнглийский
Субтитры: Русские, английские

Как за пару секунд удалить ненужные аудиодорожки и субтитры (Внимание! После удаления вы не сможете поддержать раздачу)

Медиаинфо
Общее
Уникальный идентификатор : 314372443020678165813247472891879763058 (0xEC81EE1FA5345AE5331E46FB0FBC2C72)
Полное имя : D:\Клинт Иствуд\На несколько долларов больше Per qualche dollaro in piu (For a Few Dollars More) (1965)BDRip 1080p [HEVC] 10 bit.mkv
Формат : Matroska
Версия формата : Version 4
Размер файла : 13,2 Гбайт
Продолжительность : 2 ч. 11 м.
Общий поток : 14,3 Мбит/сек
Название фильма : На несколько долларов больше_1965_рип от Joker63
Дата кодирования : UTC 2018-10-15 22:42:42
Программа кодирования : mkvmerge v27.0.0 ('Metropolis') 64-bit
Библиотека кодирования : libebml v1.3.6 + libmatroska v1.4.9 / Lavf57.71.100
Обложка : Yes
Attachments : cover.jpg
ENCODING_INFO : MATROSKA,WEBM > MKV 1080p 10-bit / H264 > X265 ABR 6000kbps Medium / DTS > AC3 CBR 640kbps / AC3 > AC3 CBR 640kbps / AC3 > AC3 CBR 640kbps / AC3 > AC3 CBR 640kbps / AC3 > AC3 CBR 640kbps / AC3 > AC3 CBR 640kbps / AC3 > AC3 CBR 640kbps / DTS > AC3 CBR 640kbps / AC3 > AC3 CBR 640kbps / AC3 > AC3 CBR 640kbps / AC3 > AC3 CBR 640kbps / AC3 > AC3 CBR 640kbps / AC3 > AC3 CBR 640kbps

Видео
Идентификатор : 1
Формат : HEVC
Формат/Информация : High Efficiency Video Coding
Профиль формата : Main 10@L5.1@Main
Идентификатор кодека : V_MPEGH/ISO/HEVC
Продолжительность : 2 ч. 11 м.
Битрейт : 6021 Кбит/сек
Ширина : 1920 пикселей
Высота : 814 пикселей
Соотношение сторон : 2,35:1
Режим частоты кадров : Постоянный
Частота кадров : 23,976 (24000/1001) кадра/сек
Цветовое пространство : YUV
Субдискретизация насыщенности : 4:2:0
Битовая глубина : 10 бит
Бит/(Пиксели*Кадры) : 0.161
Размер потока : 5,54 Гбайт (42%)
Библиотека кодирования : x265 2.8+19-bcdc610cf5f0:[Windows][GCC 7.3.0][64 bit] 10bit
Настройки программы : cpuid=1049583 / frame-threads=5 / numa-pools=4 / wpp / no-pmode / no-pme / no-psnr / no-ssim / log-level=3 / input-csp=1 / input-res=1920x814 / interlace=0 / total-frames=0 / level-idc=51 / high-tier=1 / uhd-bd=0 / ref=3 / allow-non-conformance / no-repeat-headers / annexb / no-aud / no-hrd / info / hash=0 / no-temporal-layers / open-gop / min-keyint=24 / keyint=240 / gop-lookahead=0 / bframes=6 / b-adapt=2 / b-pyramid / bframe-bias=0 / rc-lookahead=40 / lookahead-slices=5 / scenecut=40 / radl=0 / no-intra-refresh / ctu=64 / min-cu-size=8 / no-rect / no-amp / max-tu-size=32 / tu-inter-depth=1 / tu-intra-depth=1 / limit-tu=0 / rdoq-level=0 / dynamic-rd=0.00 / no-ssim-rd / signhide / no-tskip / nr-intra=0 / nr-inter=0 / no-constrained-intra / strong-intra-smoothing / max-merge=2 / limit-refs=3 / no-limit-modes / me=1 / subme=7 / merange=3 / temporal-mvp / weightp / no-weightb / no-analyze-src-pics / deblock=-3:-3 / sao / no-sao-non-deblock / rd=3 / no-early-skip / rskip / no-fast-intra / no-tskip-fast / no-cu-lossless / no-b-intra / no-splitrd-skip / rdpenalty=0 / psy-rd=2.00 / psy-rdoq=0.00 / no-rd-refine / no-lossless / cbqpoffs=0 / crqpoffs=0 / rc=abr / bitrate=6000 / qcomp=0.50 / qpstep=4 / stats-write=0 / stats-read=0 / ipratio=1.40 / pbratio=1.30 / aq-mode=1 / aq-strength=1.00 / cutree / zone-count=0 / no-strict-cbr / qg-size=32 / no-rc-grain / qpmax=69 / qpmin=0 / no-const-vbv / sar=1 / overscan=0 / videoformat=5 / range=0 / colorprim=1 / transfer=1 / colormatrix=1 / chromaloc=0 / display-window=0 / max-cll=0,0 / min-luma=0 / max-luma=1023 / log2-max-poc-lsb=8 / vui-timing-info / vui-hrd-info / slices=1 / no-opt-qp-pps / no-opt-ref-list-length-pps / no-multi-pass-opt-rps / scenecut-bias=0.05 / no-opt-cu-delta-qp / no-aq-motion / no-hdr / no-hdr-opt / no-dhdr10-opt / no-idr-recovery-sei / analysis-reuse-level=5 / scale-factor=0 / refine-intra=0 / refine-inter=0 / refine-mv=0 / no-limit-sao / ctu-info=0 / no-lowpass-dct / refine-mv-type=0 / copy-pic=1 / max-ausize-factor=1.0 / no-dynamic-refine / no-single-sei
Default : Да
Forced : Нет
Цветовой диапазон : Limited
Основные цвета : BT.709
Характеристики трансфера : BT.709
Коэффициенты матрицы : BT.709

Аудио #1
Идентификатор : 2
Формат : AC-3
Формат/Информация : Audio Coding 3
Коммерческое название : Dolby Digital
Идентификатор кодека : A_AC3
Продолжительность : 2 ч. 11 м.
Вид битрейта : Постоянный
Битрейт : 640 Кбит/сек
Каналы : 6 каналов
Channel layout : L R C LFE Ls Rs
Частота : 48,0 КГц
Частота кадров : 31,250 кадров/сек (1536 SPF)
Битовая глубина : 16 бит
Метод сжатия : С потерями
Размер потока : 603 Мбайт (4%)
Заголовок : DVO CEE
Язык : Russian
ServiceKind/String : Complete Main
Default : Да
Forced : Нет

Аудио #2
Идентификатор : 3
Формат : AC-3
Формат/Информация : Audio Coding 3
Коммерческое название : Dolby Digital
Идентификатор кодека : A_AC3
Продолжительность : 2 ч. 11 м.
Вид битрейта : Постоянный
Битрейт : 640 Кбит/сек
Каналы : 6 каналов
Channel layout : L R C LFE Ls Rs
Частота : 48,0 КГц
Частота кадров : 31,250 кадров/сек (1536 SPF)
Битовая глубина : 16 бит
Метод сжатия : С потерями
Размер потока : 603 Мбайт (4%)
Заголовок : MVO Somewax
Язык : Russian
ServiceKind/String : Complete Main
Default : Нет
Forced : Нет

Аудио #3
Идентификатор : 4
Формат : AC-3
Формат/Информация : Audio Coding 3
Коммерческое название : Dolby Digital
Идентификатор кодека : A_AC3
Продолжительность : 2 ч. 11 м.
Вид битрейта : Постоянный
Битрейт : 640 Кбит/сек
Каналы : 2 канала
Channel layout : L R
Частота : 48,0 КГц
Частота кадров : 31,250 кадров/сек (1536 SPF)
Битовая глубина : 16 бит
Метод сжатия : С потерями
Размер потока : 603 Мбайт (4%)
Заголовок : MVO Unknown
Язык : Russian
ServiceKind/String : Complete Main
Default : Нет
Forced : Нет

Аудио #4
Идентификатор : 5
Формат : AC-3
Формат/Информация : Audio Coding 3
Коммерческое название : Dolby Digital
Идентификатор кодека : A_AC3
Продолжительность : 2 ч. 11 м.
Вид битрейта : Постоянный
Битрейт : 640 Кбит/сек
Каналы : 2 канала
Channel layout : L R
Частота : 48,0 КГц
Частота кадров : 31,250 кадров/сек (1536 SPF)
Битовая глубина : 16 бит
Метод сжатия : С потерями
Размер потока : 603 Мбайт (4%)
Заголовок : MVO ORT
Язык : Russian
ServiceKind/String : Complete Main
Default : Нет
Forced : Нет

Аудио #5
Идентификатор : 6
Формат : AC-3
Формат/Информация : Audio Coding 3
Коммерческое название : Dolby Digital
Идентификатор кодека : A_AC3
Продолжительность : 2 ч. 11 м.
Вид битрейта : Постоянный
Битрейт : 640 Кбит/сек
Каналы : 2 канала
Channel layout : L R
Частота : 48,0 КГц
Частота кадров : 31,250 кадров/сек (1536 SPF)
Битовая глубина : 16 бит
Метод сжатия : С потерями
Размер потока : 603 Мбайт (4%)
Заголовок : MVO 5kanal
Язык : Russian
ServiceKind/String : Complete Main
Default : Нет
Forced : Нет

Аудио #6
Идентификатор : 7
Формат : AC-3
Формат/Информация : Audio Coding 3
Коммерческое название : Dolby Digital
Идентификатор кодека : A_AC3
Продолжительность : 2 ч. 11 м.
Вид битрейта : Постоянный
Битрейт : 640 Кбит/сек
Каналы : 2 канала
Channel layout : L R
Частота : 48,0 КГц
Частота кадров : 31,250 кадров/сек (1536 SPF)
Битовая глубина : 16 бит
Метод сжатия : С потерями
Размер потока : 603 Мбайт (4%)
Заголовок : DVO Soyuz
Язык : Russian
ServiceKind/String : Complete Main
Default : Нет
Forced : Нет

Аудио #7
Идентификатор : 8
Формат : AC-3
Формат/Информация : Audio Coding 3
Коммерческое название : Dolby Digital
Идентификатор кодека : A_AC3
Продолжительность : 2 ч. 11 м.
Вид битрейта : Постоянный
Битрейт : 640 Кбит/сек
Каналы : 2 канала
Channel layout : L R
Частота : 48,0 КГц
Частота кадров : 31,250 кадров/сек (1536 SPF)
Битовая глубина : 16 бит
Метод сжатия : С потерями
Размер потока : 603 Мбайт (4%)
Заголовок : DVO GlanzKoroleva
Язык : Russian
ServiceKind/String : Complete Main
Default : Нет
Forced : Нет

Аудио #8
Идентификатор : 9
Формат : AC-3
Формат/Информация : Audio Coding 3
Коммерческое название : Dolby Digital
Идентификатор кодека : A_AC3
Продолжительность : 2 ч. 11 м.
Вид битрейта : Постоянный
Битрейт : 640 Кбит/сек
Каналы : 6 каналов
Channel layout : L R C LFE Ls Rs
Частота : 48,0 КГц
Частота кадров : 31,250 кадров/сек (1536 SPF)
Битовая глубина : 16 бит
Метод сжатия : С потерями
Размер потока : 603 Мбайт (4%)
Заголовок : AVO Goblin
Язык : Russian
ServiceKind/String : Complete Main
Default : Нет
Forced : Нет

Аудио #9
Идентификатор : 10
Формат : AC-3
Формат/Информация : Audio Coding 3
Коммерческое название : Dolby Digital
Идентификатор кодека : A_AC3
Продолжительность : 2 ч. 11 м.
Вид битрейта : Постоянный
Битрейт : 640 Кбит/сек
Каналы : 6 каналов
Channel layout : L R C LFE Ls Rs
Частота : 48,0 КГц
Частота кадров : 31,250 кадров/сек (1536 SPF)
Битовая глубина : 16 бит
Метод сжатия : С потерями
Размер потока : 603 Мбайт (4%)
Заголовок : AVO Gorchakov
Язык : Russian
ServiceKind/String : Complete Main
Default : Нет
Forced : Нет

Аудио #10
Идентификатор : 11
Формат : AC-3
Формат/Информация : Audio Coding 3
Коммерческое название : Dolby Digital
Идентификатор кодека : A_AC3
Продолжительность : 2 ч. 11 м.
Вид битрейта : Постоянный
Битрейт : 640 Кбит/сек
Каналы : 2 канала
Channel layout : L R
Частота : 48,0 КГц
Частота кадров : 31,250 кадров/сек (1536 SPF)
Битовая глубина : 16 бит
Метод сжатия : С потерями
Размер потока : 603 Мбайт (4%)
Заголовок : AVO Gavrilov
Язык : Russian
ServiceKind/String : Complete Main
Default : Нет
Forced : Нет

Аудио #11
Идентификатор : 12
Формат : AC-3
Формат/Информация : Audio Coding 3
Коммерческое название : Dolby Digital
Идентификатор кодека : A_AC3
Продолжительность : 2 ч. 11 м.
Вид битрейта : Постоянный
Битрейт : 640 Кбит/сек
Каналы : 2 канала
Channel layout : L R
Частота : 48,0 КГц
Частота кадров : 31,250 кадров/сек (1536 SPF)
Битовая глубина : 16 бит
Метод сжатия : С потерями
Размер потока : 603 Мбайт (4%)
Заголовок : AVO Marchenko
Язык : Russian
ServiceKind/String : Complete Main
Default : Нет
Forced : Нет

Аудио #12
Идентификатор : 13
Формат : AC-3
Формат/Информация : Audio Coding 3
Коммерческое название : Dolby Digital
Идентификатор кодека : A_AC3
Продолжительность : 2 ч. 11 м.
Вид битрейта : Постоянный
Битрейт : 640 Кбит/сек
Каналы : 2 канала
Channel layout : L R
Частота : 48,0 КГц
Частота кадров : 31,250 кадров/сек (1536 SPF)
Битовая глубина : 16 бит
Метод сжатия : С потерями
Размер потока : 603 Мбайт (4%)
Заголовок : VO Unknown
Язык : Russian
ServiceKind/String : Complete Main
Default : Нет
Forced : Нет

Аудио #13
Идентификатор : 14
Формат : AC-3
Формат/Информация : Audio Coding 3
Коммерческое название : Dolby Digital
Идентификатор кодека : A_AC3
Продолжительность : 2 ч. 11 м.
Вид битрейта : Постоянный
Битрейт : 640 Кбит/сек
Каналы : 2 канала
Channel layout : L R
Частота : 48,0 КГц
Частота кадров : 31,250 кадров/сек (1536 SPF)
Битовая глубина : 16 бит
Метод сжатия : С потерями
Размер потока : 603 Мбайт (4%)
Язык : English
ServiceKind/String : Complete Main
Default : Нет
Forced : Нет

Текст #1
Идентификатор : 15
Формат : UTF-8
Идентификатор кодека : S_TEXT/UTF8
Идентификатор кодека/Информация : UTF-8 Plain Text
Продолжительность : 2 ч. 7 м.
Битрейт : 39 бит/сек
ElementCount : 759
Размер потока : 36,4 Кбайт (0%)
Язык : Russian
Default : Да
Forced : Нет

Текст #2
Идентификатор : 16
Формат : UTF-8
Идентификатор кодека : S_TEXT/UTF8
Идентификатор кодека/Информация : UTF-8 Plain Text
Продолжительность : 2 ч. 4 м.
Битрейт : 24 бит/сек
ElementCount : 740
Размер потока : 22,9 Кбайт (0%)
Язык : English
Default : Нет
Forced : Нет

Меню
00:00:00.000 : :Chapter 1
00:04:05.870 : :Chapter 2
00:06:27.095 : :Chapter 3
00:11:48.290 : :Chapter 4
00:13:07.161 : :Chapter 5
00:18:29.483 : :Chapter 6
00:24:25.005 : :Chapter 7
00:30:50.139 : :Chapter 8
00:32:51.594 : :Chapter 9
00:35:27.333 : :Chapter 10
00:40:05.778 : :Chapter 11
00:41:00.833 : :Chapter 12
00:48:31.158 : :Chapter 13
00:51:32.297 : :Chapter 14
00:57:14.931 : :Chapter 15
01:02:05.221 : :Chapter 16
01:04:07.718 : :Chapter 17
01:08:08.542 : :Chapter 18
01:10:07.243 : :Chapter 19
01:14:11.113 : :Chapter 20
01:21:22.127 : :Chapter 21
01:26:00.697 : :Chapter 22
01:30:13.324 : :Chapter 23
01:33:47.913 : :Chapter 24
01:35:55.082 : :Chapter 25
01:41:39.093 : :Chapter 26
01:47:33.155 : :Chapter 27
01:50:28.246 : :Chapter 28
01:55:21.164 : :Chapter 29
01:57:50.313 : :Chapter 30
02:00:51.744 : :Chapter 31
02:06:40.676 : :Chapter 32
Загрузка...Cкриншот1 На несколько долларов больше / Per qualche dollaro in più (1965) BDRip 1080p [HEVC] 10 bit от joker63Загрузка...Cкриншот2 На несколько долларов больше / Per qualche dollaro in più (1965) BDRip 1080p [HEVC] 10 bit от joker63Загрузка...Cкриншот3 На несколько долларов больше / Per qualche dollaro in più (1965) BDRip 1080p [HEVC] 10 bit от joker63Загрузка...Cкриншот4 На несколько долларов больше / Per qualche dollaro in più (1965) BDRip 1080p [HEVC] 10 bit от joker63
Сэмпл Торрент🧲 Магнет

Рейтинги КП и IMDB, кнопки "Позвать в чате" и "Спасибо", а также мультитрекерная статистика доступны только зарегистрированным/авторизованным пользователям!

Файлы: 1
  • На несколько долларов больше Per qualche dollaro in piu (For a Few Dollars More) (1965)BDRip 1080p [HEVC] 10 bit.mkv   13.2 ГБ
Поблагодарили: 8
alexyak, bright, brukvalub, HANNIBAL, Korbis, Maximilian_1932, normallhuman, vladd37
joker63
71990013.2 ГБ

Добавление нового комментария

Добавление комментариев доступно только зарегистрированным/авторизованным пользователям.
Аватар не указан
  alex_rad  
Дайте докачать ребят.. Все скачали и убежали
Аватар не указан
  Algabas  
В чем кайф десятка переводов?
Пересматривать фильм несколько раз с разными переводами?!
Или, все таки, оставить пару тех, которые нравятся, а остальные удалить из файла?
Аватар не указан
  alex_rad  
вооот это спасибо. Наконец мои молитвы услышали авторы))))
Аватар Admin
  Admin  
joker63 писал(а):
Все переводы не смог вместить тут.В фильме больше.
А я взял и уместил
Аватар joker63
  joker63  
Перевод 8: Авторский (одноголосый закадровый) Пучков (Гоблин)
Перевод 9: Авторский (одноголосый закадровый) Горчаков
Перевод 10: Авторский (одноголосый закадровый) Гаврилов
Перевод 11: Авторский (одноголосый закадровый) Марченко
Перевод 12: Одноголосый закадровый
Аватар Cthulhu
  Cthulhu  
joker63 писал(а):
Все переводы не смог вместить тут.В фильме больше.
Допиши в комментарии
Аватар joker63
  joker63  
Все переводы не смог вместить тут.В фильме больше.