💬 Мини-чат

Для тех, кому интересен процесс переделки сайта - https://rips.club/changelog.html (обновлен 22.02.2024)
OldGamerz1M4p9i0, и этот релиз скачался
Adminatomicheart, встал, но у Вас в профиле не видно. Вам бы перекачать.
OldGamerz1M4p9i0, Хан Соло скачался, но релиз, который был на руторе, там аудиодорожек меньше, чем тут, а видеоряд тот же. Попробуйте оттуда, я пока что сидирую.
OldGamerХан Соло откуда-то по чайной ложке в час скачивается, за сутки 50%, наблюдаем-с дальше
Adminatomicheart, завтра посмотрю, он у меня должен быть.
atomicheartРаздайте, пожалуйста, Тихое место: Дилогия / A Quiet Place: Dilogy (2018-2020) UHD-BDRip 1080p [HEVC] 10 bit [HDR] от Mr. Fox
z1M4p9i0Раздайте, пожалуйста, Хан Соло: Звёздные войны. Истории / Solo: A Star Wars Story (2018) [Локализованная версия] BDRip 1080p [HEVC] 10 bit от Cthulhu
z1M4p9i0Раздайте, пожалуйста, Терминатор: Тёмные судьбы / Terminator: Dark Fate (2019) [iTunes] UHD-BDRip 1440p [HEVC] 10 bit от HANNIBAL
OldGamerKeynol, честно говоря, пока что не планировалось, так как у нас есть отличный рип этого фильма
KeynolПриветствую! А можно сделать HEVC 10 bit на Трон Наследие Hybrid ? там файл на 31 гиг :-( на рутрекере. Хороший, но очень массивный..
  • OldGamer
  • Alex302
  • ancestor87
  • InSpector
Отправка сообщений доступна только зарегистрированным/авторизованным пользователям.
Онлайн (за 10 мин.): 4

Мистер и Миссис Смит / Mr. & Mrs. Smith (2005) [Theatrical Cut] BDRip 1080p [HEVC] 10 bit от chema1982

HEVC
10 bit
Обложка Мистер и Миссис Смит / Mr. & Mrs. Smith (2005) [Theatrical Cut] BDRip 1080p [HEVC] 10 bit от chema1982 Год: 2005
Страна: США
Жанр: Боевик, Комедия, Мелодрама, Приключения
Продолжительность: 01:59:58

Режиссер: Даг Лайман
В ролях: Брэд Питт, Анджелина Джоли, Винс Вон, Адам Броди, Керри Вашингтон, Кейт Дэвид, Крис Вейц, Рэйчел Хантли, Мишель Монахэн

Описание: Джон и Джейн женаты не так долго, но уже утомлены своим браком. Им кажется, что они знают друг о друге всё. Но есть кое-что, что каждый предпочитает держать при себе: оба они — наёмные убийцы, которые тайно путешествуют по миру, выполняя опасные миссии. Эти отдельные тайные приключения становятся их общей судьбой в тот момент, когда Джейн получает заказ на Джона, а Джон — на Джейн.


Видео: 1920x816, 6429 Kbps
Аудио1: AC-3, 6 ch, 448 Kbps - РусскийРусский, Дублированный
Аудио2: DTS, 6 ch, 1510 Kbps - АнглийскийАнглийский, Оригинал
Субтитры: нет

Как за пару секунд удалить ненужные аудиодорожки и субтитры (Внимание! После удаления вы не сможете поддержать раздачу)

Медиаинфо
Общее
Уникальный идентификатор : 196855151079636416864563463985045546665 (0x9418EC4AD98075620FB6B05A59DDA6A9)
Полное имя : D:\Раздачи\Mister.I.Missis.Smit (1).mkv
Формат : Matroska
Версия формата : Version 4
Размер файла : 7,03 Гбайт
Продолжительность : 1 ч. 59 м.
Общий поток : 8390 Кбит/сек
Название фильма : Mister.I.Missis.Smit
Дата кодирования : UTC 2018-10-20 08:46:31
Программа кодирования : mkvmerge v26.0.0 ('In The Game') 64-bit
Библиотека кодирования : libebml v1.3.6 + libmatroska v1.4.9 / Lavf57.71.100
Обложка : Yes
Attachments : cover.jpg
ENCODING_INFO : MATROSKA,WEBM > MKV 1080p 10-bit / H264 > X265 CRF 18.0 Medium / DTS > COPY Безопасное / AC3 > COPY Безопасное

Видео
Идентификатор : 1
Формат : HEVC
Формат/Информация : High Efficiency Video Coding
Профиль формата : Main 10@L4.1@High
Идентификатор кодека : V_MPEGH/ISO/HEVC
Продолжительность : 1 ч. 59 м.
Битрейт : 6429 Кбит/сек
Ширина : 1920 пикселей
Высота : 816 пикселей
Соотношение сторон : 2,35:1
Режим частоты кадров : Постоянный
Частота кадров : 23,976 (24000/1001) кадра/сек
Цветовое пространство : YUV
Субдискретизация насыщенности : 4:2:0
Битовая глубина : 10 бит
Бит/(Пиксели*Кадры) : 0.171
Размер потока : 5,39 Гбайт (77%)
Библиотека кодирования : x265 2.8+19-bcdc610cf5f0:[Windows][GCC 7.3.0][64 bit] 10bit
Настройки программы : cpuid=1049583 / frame-threads=5 / numa-pools=4 / wpp / no-pmode / no-pme / no-psnr / no-ssim / log-level=3 / input-csp=1 / input-res=1920x816 / interlace=0 / total-frames=0 / level-idc=41 / high-tier=1 / uhd-bd=0 / ref=4 / allow-non-conformance / no-repeat-headers / annexb / no-aud / no-hrd / info / hash=0 / no-temporal-layers / open-gop / min-keyint=24 / keyint=240 / gop-lookahead=0 / bframes=8 / b-adapt=2 / b-pyramid / bframe-bias=0 / rc-lookahead=60 / lookahead-slices=5 / scenecut=40 / radl=0 / no-intra-refresh / ctu=64 / min-cu-size=8 / no-rect / no-amp / max-tu-size=32 / tu-inter-depth=1 / tu-intra-depth=1 / limit-tu=0 / rdoq-level=0 / dynamic-rd=0.00 / no-ssim-rd / signhide / no-tskip / nr-intra=0 / nr-inter=0 / no-constrained-intra / no-strong-intra-smoothing / max-merge=5 / limit-refs=3 / no-limit-modes / me=3 / subme=7 / merange=57 / temporal-mvp / weightp / no-weightb / no-analyze-src-pics / deblock=-3:-3 / no-sao / no-sao-non-deblock / rd=3 / no-early-skip / rskip / no-fast-intra / no-tskip-fast / no-cu-lossless / no-b-intra / no-splitrd-skip / rdpenalty=0 / psy-rd=2.00 / psy-rdoq=0.00 / no-rd-refine / no-lossless / cbqpoffs=0 / crqpoffs=0 / rc=crf / crf=18.0 / qcomp=0.75 / qpstep=1 / stats-write=0 / stats-read=0 / vbv-maxrate=50000 / vbv-bufsize=50000 / vbv-init=0.9 / crf-max=0.0 / crf-min=0.0 / ipratio=1.40 / pbratio=1.30 / aq-mode=1 / aq-strength=1.00 / cutree / zone-count=0 / no-strict-cbr / qg-size=32 / no-rc-grain / qpmax=69 / qpmin=0 / no-const-vbv / sar=255 / sar-width / : / sar-height=117:118 / overscan=0 / videoformat=5 / range=0 / colorprim=2 / transfer=2 / colormatrix=2 / chromaloc=0 / display-window=0 / max-cll=0,0 / min-luma=0 / max-luma=1023 / log2-max-poc-lsb=8 / vui-timing-info / vui-hrd-info / slices=1 / no-opt-qp-pps / no-opt-ref-list-length-pps / no-multi-pass-opt-rps / scenecut-bias=0.05 / no-opt-cu-delta-qp / no-aq-motion / no-hdr / no-hdr-opt / no-dhdr10-opt / no-idr-recovery-sei / analysis-reuse-level=5 / scale-factor=0 / refine-intra=0 / refine-inter=0 / refine-mv=0 / no-limit-sao / ctu-info=0 / no-lowpass-dct / refine-mv-type=0 / copy-pic=1 / max-ausize-factor=1.0 / no-dynamic-refine / no-single-sei
Язык : English
Default : Да
Forced : Нет

Аудио #1
Идентификатор : 2
Формат : AC-3
Формат/Информация : Audio Coding 3
Коммерческое название : Dolby Digital
Идентификатор кодека : A_AC3
Продолжительность : 1 ч. 59 м.
Вид битрейта : Постоянный
Битрейт : 448 Кбит/сек
Каналы : 6 каналов
Channel layout : L R C LFE Ls Rs
Частота : 48,0 КГц
Частота кадров : 31,250 кадров/сек (1536 SPF)
Битовая глубина : 16 бит
Метод сжатия : С потерями
Размер потока : 384 Мбайт (5%)
Заголовок : Дубляж / AC3 5.1 448Kbps
Язык : Russian
ServiceKind/String : Complete Main
Default : Да
Forced : Нет

Аудио #2
Идентификатор : 3
Формат : DTS
Формат/Информация : Digital Theater Systems
Идентификатор кодека : A_DTS
Продолжительность : 1 ч. 59 м.
Вид битрейта : Постоянный
Битрейт : 1510 Кбит/сек
Каналы : 6 каналов
Channel layout : C L R Ls Rs LFE
Частота : 48,0 КГц
Частота кадров : 93,750 кадра/сек (512 SPF)
Битовая глубина : 24 бит
Метод сжатия : С потерями
Размер потока : 1,27 Гбайт (18%)
Заголовок : DTS 5.1 by MIF
Язык : English
Default : Нет
Forced : Нет

Меню
00:00:00.000 : :Studio Logos
00:00:37.000 : :The Smith's Go to Marriage Counseling, Opening Credits
00:02:19.000 : :Police Search for Tourists Traveling Alone
00:03:37.000 : :John and Jane Drink and Dance
00:04:58.000 : :John Brings Jane Breakfast
00:06:29.000 : :John and Jane Go on a Date
00:07:49.000 : :John and Jane Tell Friends They're Getting Married
00:09:04.000 : :The Smiths Start a Typical Morning
00:10:38.000 : :Benjamin Gets an Assignment
00:11:33.000 : :John Comes Home
00:14:13.000 : :The Smiths Complain about Marriage
00:17:16.000 : :The Smiths Go to Separate Jobs
00:22:50.000 : :The Smiths Go to a Neighbor's Party
00:25:22.000 : :The Smiths Prepare to Receive New Assignments
00:30:02.000 : :The Smiths Go After Benjamin
00:34:50.000 : :The Smiths Try to Figure Out Who Botched Their Jobs
00:37:50.000 : :John and Jane Discover One Another's Identities
00:39:26.000 : :The Smiths Have a Tense Dinner
00:46:49.000 : :The Smiths Tell Their Friends about Their Situations
00:50:13.000 : :Jane's Team Searches Her House
00:52:55.000 : :John Visits Jane
00:56:01.000 : :John Finds a Clue in the Furnace
00:56:59.000 : :Jane Threatens John
01:00:45.000 : :John and Jane Tango
01:05:59.000 : :The Smiths Talk about Their Relationship
01:07:56.000 : :John and Jane Arrive Home
01:10:16.000 : :John and Jane Fight with Each Other
01:17:30.000 : :The Smiths Become Targets
01:18:03.000 : :The Smiths Reminisce about Past Missions
01:19:48.000 : :Assassins Attempt to Kill the Smiths
01:23:56.000 : :The Smiths Learn More about Each Other While Eluding Assassins
01:29:05.000 : :The Smiths Meet with Eddie for More Information
01:31:05.000 : :Jane Gets Information on Benjamin
01:31:27.000 : :The Smiths Go After Benjamin
01:35:33.000 : :The Smiths Argue about Teamwork
01:36:46.000 : :The Smiths Learn They Were Set Up
01:39:43.000 : :The Smiths Escape and Plan to Fight
01:41:37.000 : :The Smiths Defend Themselves from Assassins
01:47:56.000 : :The Smiths Prepare for the Final Assault
01:50:01.000 : :The Smiths Go Out Guns Blazing
01:51:26.000 : :John and Jane Speak about Their Rekindled Marriage
01:52:26.000 : :End Credits
Загрузка...Cкриншот1 Мистер и Миссис Смит / Mr. & Mrs. Smith (2005) [Theatrical Cut] BDRip 1080p [HEVC] 10 bit от chema1982Загрузка...Cкриншот2 Мистер и Миссис Смит / Mr. & Mrs. Smith (2005) [Theatrical Cut] BDRip 1080p [HEVC] 10 bit от chema1982Загрузка...Cкриншот3 Мистер и Миссис Смит / Mr. & Mrs. Smith (2005) [Theatrical Cut] BDRip 1080p [HEVC] 10 bit от chema1982Загрузка...Cкриншот4 Мистер и Миссис Смит / Mr. & Mrs. Smith (2005) [Theatrical Cut] BDRip 1080p [HEVC] 10 bit от chema1982
Сэмпл Торрент🧲 Магнет

Раздача обновлена!
Замена звуковой дорожки. На фоне дубляжа английская озвучка была слышна.

Рейтинги КП и IMDB, кнопки "Позвать в чате" и "Спасибо", а также мультитрекерная статистика доступны только зарегистрированным/авторизованным пользователям!

Файлы: 1
  • Mister.I.Missis.Smit (1).mkv   7.03 ГБ
Поблагодарили: 8
aacg, alexyak, brukvalub, Korben_23rus, Korbis, nach, SwX8, verasens
chema1982
0365017.03 ГБ

Добавление нового комментария

Добавление комментариев доступно только зарегистрированным/авторизованным пользователям.