💬 Мини-чат

OldGamerвыводить
mafo2Admin, можно вывести, наглядно будет
StarLordAdmin, +
AdminНадпись HDR выводить на обложку?
OldGamerGiggalo, но лучше всего вообще не затрагивайте этот ключ, по умолчанию будет установлено оптимальное значение
OldGamerGiggalo, но если уж очень хочется то пишите --frame-threads 3
OldGamerGiggalo, а зачем его менять?) нужное значение устанавливается автоматически
GiggaloДобрый вечер всем! OldGamer Покажи пожалуйста почему когда пишу в командной строке frame-threads=3 он не меняется. Какой там стоит 13 он его и держит, а ругие установки спокойно меняет?
AdminStarLord, спасибо. Пока сойдет.
StarLordAdmin, ага, вижу
StarLordAdmin, а как должно брать?
AdminStarLord, ты шаришь?
AdminStarLord, у меня сейчас такая, но с точками беда. Доработать бы (https?://([-\w\.]+)+(:\d+)?(/([-\w/_:%]*(\.\w+)*(\?\S+)?)?)?)
AdminStarLord, скрины в bb некорректно берет
StarLordwww, ftp(s), http(s), #, :, &
StarLordAdmin, все мои кейсы покрыла
StarLordAdmin, вот эта хорошая -(?:(?:https?|ftps?):\/\/|\b(?:[a-z\d]+\.))(?:(?:[^\s()<>]+|\((?:[^\s()<>]+|(?:\([^\s()<>]+\)))?\))+(?:\((?:[^\s()<>]+|(?:\(?:[^\s()<>]+\)))?\)|[^\s`!()\[\]{};:'".,<>?«»“”‘’]))?
AdminStarLord, мне бы с обязательным указанием протокола
AdminСообщение удалено (удалил: Admin)
AdminСообщение удалено (удалил: Admin)
  • OldGamer
  • Godspeed
  • InSpector
  • Херсонец
Отправка сообщений доступна только зарегистрированным/авторизованным пользователям.
Онлайн (за 10 мин.): 4

Австралия / Australia (2008) BDRip 1080p [HEVC] 10 bit от Cthulhu

HEVC
10 bit
Обложка Австралия / Australia (2008) BDRip 1080p [HEVC] 10 bit от Cthulhu Год: 2008
Страна: США, Австралия, Великобритания
Студия: 20th Century Fox
Жанр: Драма, Мелодрама, Приключения, Военный
Продолжительность: 02:45:28

Режиссер: Баз Лурман
В ролях: Николь Кидман, Хью Джекман, Дэвид Уэнэм, Брайан Браун, Джек Томпсон, Дэвид Гулпилил, Брэндон Уолтерс, Дэвид Нгумбуджарра, Бен Мендельсон, Эсси Дэв

Описание: В основе сюжета положена история английской аристократки, получающей в наследство огромное ранчо на севере австралийского материка. Перед началом Второй мировой войны она приезжает в имение для того, чтобы оберечь его от попыток английских скотоводов заполучить ранчо под названием «Faraway Downs» в свою собственность, и сталкивается с необходимостью при помощи Дровера перегнать 1500 голов скота через тысячи миль в город Дарвин.


Видео: 1920x816, 7562 Kbps
Аудио1: AC3, 6 ch, 640 Kbps - РусскийРусский, Дублированный (Blu-ray CEE)
Аудио2: AC3, 6 ch, 448 Kbps - РусскийРусский, Одноголосый (Сербин)
Аудио3: AC3, 6 ch, 640 Kbps - АнглийскийАнглийский, Оригинал
Субтитры: Русские (форсированные, полные), английские

Как за пару секунд удалить ненужные аудиодорожки и субтитры (Внимание! После удаления вы не сможете поддержать раздачу)

Медиаинфо
x265 [info]: frame I: 3025, Avg QP:17.01 kb/s: 28993.65
x265 [info]: frame P: 51943, Avg QP:18.69 kb/s: 16068.58
x265 [info]: frame B: 183089, Avg QP:20.72 kb/s: 4793.26
x265 [info]: consecutive B-frames: 8.7% 2.5% 5.1% 47.1% 11.5% 21.2% 1.6% 1.2% 0.3% 0.3%

General
Unique ID : 34847590937464286582306140790907003029 (0x1A3766E21B710B63FAAB96A1215CE095)
Complete name : F:HEVCAustralia (2008) BDRip-HEVC 1080p - KORSAR.mkv
Format : Matroska
Format version : Version 4 / Version 2
File size : 10.7 GiB
Duration : 2 h 45 min
Overall bit rate : 9 292 kb/s
Movie name : rip_by_Cthulhu
Encoded date : UTC 2018-10-16 16:29:13
Writing application : mkvmerge v26.0.0 ('In The Game') 64-bit
Writing library : libebml v1.3.6 + libmatroska v1.4.9
Cover : Yes
Attachments : cover101.jpg

Video
ID : 1
Format : HEVC
Format/Info : High Efficiency Video Coding
Format profile : Main 10@L4.1@High
Codec ID : V_MPEGH/ISO/HEVC
Duration : 2 h 45 min
Bit rate : 7 562 kb/s
Width : 1 920 pixels
Height : 816 pixels
Display aspect ratio : 2.35:1
Frame rate mode : Constant
Frame rate : 23.976 (24000/1001) FPS
Color space : YUV
Chroma subsampling : 4:2:0
Bit depth : 10 bits
Bits/(Pixel*Frame) : 0.201
Stream size : 8.74 GiB (81%)
Writing library : x265 2.8+10-703eade86b53:[Windows][GCC 8.1.0][64 bit] 10bit
Encoding settings : cpuid=1176575 / frame-threads=4 / numa-pools=16 / wpp / no-pmode / no-pme / no-psnr / no-ssim / log-level=2 / input-csp=1 / input-res=1920x816 / interlace=0 / total-frames=238057 / level-idc=41 / high-tier=1 / uhd-bd=0 / ref=5 / no-allow-non-conformance / no-repeat-headers / annexb / no-aud / no-hrd / info / hash=0 / no-temporal-layers / open-gop / min-keyint=23 / keyint=240 / gop-lookahead=0 / bframes=9 / b-adapt=2 / b-pyramid / bframe-bias=0 / rc-lookahead=60 / lookahead-slices=0 / scenecut=40 / radl=0 / no-intra-refresh / ctu=32 / min-cu-size=8 / rect / amp / max-tu-size=32 / tu-inter-depth=4 / tu-intra-depth=4 / limit-tu=1 / rdoq-level=2 / dynamic-rd=0.00 / no-ssim-rd / signhide / no-tskip / nr-intra=0 / nr-inter=0 / no-constrained-intra / no-strong-intra-smoothing / max-merge=5 / limit-refs=2 / limit-modes / me=3 / subme=7 / merange=57 / temporal-mvp / weightp / weightb / no-analyze-src-pics / deblock=-3:-3 / no-sao / no-sao-non-deblock / rd=6 / no-early-skip / rskip / no-fast-intra / no-tskip-fast / no-cu-lossless / b-intra / no-splitrd-skip / rdpenalty=0 / psy-rd=2.00 / psy-rdoq=1.00 / no-rd-refine / no-lossless / cbqpoffs=0 / crqpoffs=0 / rc=crf / crf=19.0 / qcomp=0.62 / qpstep=4 / stats-write=0 / stats-read=0 / vbv-maxrate=50000 / vbv-bufsize=50000 / vbv-init=0.9 / crf-max=0.0 / crf-min=0.0 / ipratio=1.40 / pbratio=1.30 / aq-mode=2 / aq-strength=0.90 / no-cutree / zone-count=0 / no-strict-cbr / qg-size=32 / no-rc-grain / qpmax=69 / qpmin=0 / no-const-vbv / sar=1 / overscan=0 / videoformat=5 / range=0 / colorprim=1 / transfer=1 / colormatrix=1 / chromaloc=0 / display-window=0 / max-cll=0,0 / min-luma=0 / max-luma=1023 / log2-max-poc-lsb=8 / vui-timing-info / vui-hrd-info / slices=1 / no-opt-qp-pps / no-opt-ref-list-length-pps / no-multi-pass-opt-rps / scenecut-bias=0.05 / no-opt-cu-delta-qp / aq-motion / no-hdr / no-hdr-opt / no-dhdr10-opt / no-idr-recovery-sei / analysis-reuse-level=5 / scale-factor=0 / refine-intra=0 / refine-inter=0 / refine-mv=0 / no-limit-sao / ctu-info=0 / no-lowpass-dct / refine-mv-type=0 / copy-pic=1 / max-ausize-factor=1.0 / no-dynamic-refine / no-single-sei
Language : English
Default : Yes
Forced : No
Color range : Limited
Color primaries : BT.709
Transfer characteristics : BT.709
Matrix coefficients : BT.709

Audio #1
ID : 2
Format : AC-3
Format/Info : Audio Coding 3
Mode extension : CM (complete main)
Format settings, Endianness : Big
Codec ID : A_AC3
Duration : 2 h 45 min
Bit rate mode : Constant
Bit rate : 640 kb/s
Channel(s) : 6 channels
Channel positions : Front: L C R, Side: L R, LFE
Sampling rate : 48.0 kHz
Frame rate : 31.250 FPS (1536 spf)
Compression mode : Lossy
Stream size : 757 MiB (7%)
Title : DUB
Language : Russian
Default : Yes
Forced : No

Audio #2
ID : 3
Format : AC-3
Format/Info : Audio Coding 3
Mode extension : CM (complete main)
Format settings, Endianness : Big
Codec ID : A_AC3
Duration : 2 h 45 min
Bit rate mode : Constant
Bit rate : 640 kb/s
Channel(s) : 6 channels
Channel positions : Front: L C R, Side: L R, LFE
Sampling rate : 48.0 kHz
Frame rate : 31.250 FPS (1536 spf)
Compression mode : Lossy
Stream size : 758 MiB (7%)
Language : English
Default : No
Forced : No

Audio #3
ID : 7
Format : AC-3
Format/Info : Audio Coding 3
Mode extension : CM (complete main)
Format settings, Endianness : Big
Codec ID : A_AC3
Duration : 2 h 45 min
Bit rate mode : Constant
Bit rate : 448 kb/s
Channel(s) : 6 channels
Channel positions : Front: L C R, Side: L R, LFE
Sampling rate : 48.0 kHz
Frame rate : 31.250 FPS (1536 spf)
Compression mode : Lossy
Stream size : 530 MiB (5%)
Title : AVO Сербин
Language : Russian
Default : No
Forced : No

Text #1
ID : 4
Format : UTF-8
Codec ID : S_TEXT/UTF8
Codec ID/Info : UTF-8 Plain Text
Duration : 2 h 36 min
Bit rate : 1 b/s
Count of elements : 39
Stream size : 1.91 KiB (0%)
Title : rus forced
Language : Russian
Default : No
Forced : No

Text #2
ID : 5
Format : UTF-8
Codec ID : S_TEXT/UTF8
Codec ID/Info : UTF-8 Plain Text
Duration : 2 h 38 min
Bit rate : 77 b/s
Count of elements : 1623
Stream size : 89.7 KiB (0%)
Title : rus full
Language : Russian
Default : No
Forced : No

Text #3
ID : 6
Format : UTF-8
Codec ID : S_TEXT/UTF8
Codec ID/Info : UTF-8 Plain Text
Duration : 2 h 40 min
Bit rate : 54 b/s
Count of elements : 1775
Stream size : 64.4 KiB (0%)
Language : English
Default : No
Forced : No

Menu
00:00:00.000 : :Chapter 01
00:05:03.886 : :Chapter 02
00:06:08.785 : :Chapter 03
00:16:17.893 : :Chapter 04
00:22:30.557 : :Chapter 05
00:26:59.117 : :Chapter 06
00:32:40.333 : :Chapter 07
00:41:30.613 : :Chapter 08
00:52:23.014 : :Chapter 09
00:57:29.320 : :Chapter 10
01:00:07.520 : :Chapter 11
01:09:48.893 : :Chapter 12
01:14:57.409 : :Chapter 13
01:18:07.099 : :Chapter 14
01:29:32.450 : :Chapter 15
01:38:19.226 : :Chapter 16
01:44:46.655 : :Chapter 17
01:47:32.320 : :Chapter 18
01:54:33.074 : :Chapter 19
01:56:05.583 : :Chapter 20
02:03:37.660 : :Chapter 21
02:08:31.370 : :Chapter 22
02:14:35.108 : :Chapter 23
02:23:16.838 : :Chapter 24
02:33:59.563 : :Chapter 25
02:37:46.415 : :Chapter 26
02:45:28.084 : :Chapter 27
Загрузка...Cкриншот1 Австралия / Australia (2008) BDRip 1080p [HEVC] 10 bit от CthulhuЗагрузка...Cкриншот2 Австралия / Australia (2008) BDRip 1080p [HEVC] 10 bit от CthulhuЗагрузка...Cкриншот3 Австралия / Australia (2008) BDRip 1080p [HEVC] 10 bit от CthulhuЗагрузка...Cкриншот4 Австралия / Australia (2008) BDRip 1080p [HEVC] 10 bit от Cthulhu
Сэмпл Торрент🧲 Магнет

Рейтинги КП и IMDB, кнопки "Позвать в чате" и "Спасибо", а также мультитрекерная статистика сидов и пиров доступны только зарегистрированным/авторизованным пользователям!

Файлы: 1
  • Australia (2008) BDRip-HEVC 1080p - KORSAR.mkv   10.74 ГБ
Поблагодарили: 3
brukvalub, normallhuman, stormbringer
Cthulhu
12382110.74 ГБ

Добавление нового комментария

Добавление комментариев доступно только зарегистрированным/авторизованным пользователям.
Аватар NoMaD
  NoMaD  
Благо дарю)))