💬 Мини-чат

Giggaloнет ли у кого в планах "Давайте потанцуем" 2004
GiggaloСообщение удалено (удалил: Giggalo)
StarLordOldGamer, как дела?)
StarLordOldGamer, ура, вернулся 😄
OldGamerRezident, можете скачать этот фильм от другого релизёра, там невелика разница, а раздающие точно есть
OldGamerGiggalo, https://tsya.ru/mnemonic.html
NoMaDСообщение удалено (удалил: NoMaD)
NoMaDСообщение удалено (удалил: NoMaD)
GiggaloСообщение удалено (удалил: Giggalo)
GiggaloСообщение удалено (удалил: Giggalo)
Spartanec1308Был днём
StarLordGiggalo, наверное отрубало беднягу, целый день его нету 😅
GiggaloСообщение удалено (удалил: Giggalo)
OldGamerДоброе. Работы много, некогда на перинах валяться.
GiggaloСообщение удалено (удалил: Giggalo)
GiggaloСообщение удалено (удалил: Giggalo)
  • StarLord
  • netfigni
Отправка сообщений доступна только зарегистрированным/авторизованным пользователям.
Онлайн (за 10 мин.): 2

Ведьма / The VVitch: A New-England Folktale (2015) BDRip 1080p [HEVC] 10 bit от DSIO

HEVC
10 bit
Обложка Ведьма / The VVitch: A New-England Folktale (2015) BDRip 1080p [HEVC] 10 bit от DSIO Год: 2015
Страна: США, Великобритания, Канада, Бразилия
Жанр: Ужасы, Детектив
Продолжительность: 01:32:32

Режиссер: Роберт Эггерс
В ролях: Аня Тейлор-Джой, Ралф Айнесон, Кейт Дики, Харви Скримшо, Элли Грэйнджер, Лукас Доусон, Джулиан Ричингс, Батшеба Гарнетт, Сара Стефенс, Вахаб Каудхри

Описание: В 1630 году семья колонистов покидает плантацию, чтобы жить на уединенной ферме рядом с лесом в Новой Англии. Но вскоре младший ребёнок, ещё младенец, исчезает.


Видео: 1800x1080, 8858 Kbps
Аудио1: AC3, 6 ch, 640 Kbps - РусскийРусский, Дублированный
Аудио2: AC3, 6 ch, 640 Kbps - АнглийскийАнглийский, Оригинал
Субтитры: Русские (полные)

Как за пару секунд удалить ненужные аудиодорожки и субтитры (Внимание! После удаления вы не сможете поддержать раздачу)

Медиаинфо
Общее
Уникальный идентификатор : 286181714014067519756456346062925295871 (0xD74C97DF98EFC16803A761D28BFF70FF)
Полное имя : F:\korsar\Ведьма - The VVitch. A New-England Folktale (2015)(1080p) KORSAR.mkv
Формат : Matroska
Версия формата : Version 4 / Version 2
Размер файла : 6,55 Гбайт
Продолжительность : 1 ч. 32 м.
Общий поток : 10,1 Мбит/сек
Название фильма : Ведьма / - The VVitch. A New-England Folktale (Rip by DSIO)
Дата кодирования : UTC 2018-10-13 18:15:46
Программа кодирования : mkvmerge v25.0.0 ('Prog Noir') 64-bit
Библиотека кодирования : libebml v1.3.6 + libmatroska v1.4.9
Обложка : Yes
Attachments : cover.jpg
Encoding Gui : Hybrid 2018.08.05.1

Видео
Идентификатор : 1
Формат : HEVC
Формат/Информация : High Efficiency Video Coding
Профиль формата : Main 10@L5.1@High
Идентификатор кодека : V_MPEGH/ISO/HEVC
Продолжительность : 1 ч. 32 м.
Битрейт : 8858 Кбит/сек
Ширина : 1800 пикселей
Высота : 1080 пикселей
Соотношение сторон : 5:3
Режим частоты кадров : Постоянный
Частота кадров : 23,976 (24000/1001) кадра/сек
Цветовое пространство : YUV
Субдискретизация насыщенности : 4:2:0
Битовая глубина : 10 бит
Бит/(Пиксели*Кадры) : 0.190
Размер потока : 5,73 Гбайт (87%)
Библиотека кодирования : x265 2.8+57-eea92165b035:[Windows][GCC 8.2.0][64 bit] 10bit
Настройки программы : cpuid=1176575 / frame-threads=4 / numa-pools=16 / wpp / no-pmode / no-pme / no-psnr / no-ssim / log-level=2 / input-csp=1 / input-res=1800x1080 / interlace=0 / total-frames=0 / level-idc=51 / high-tier=1 / uhd-bd=0 / ref=5 / no-allow-non-conformance / no-repeat-headers / annexb / no-aud / no-hrd / info / hash=0 / no-temporal-layers / open-gop / min-keyint=23 / keyint=250 / gop-lookahead=0 / bframes=8 / b-adapt=2 / no-b-pyramid / bframe-bias=0 / rc-lookahead=60 / lookahead-slices=4 / scenecut=40 / radl=0 / no-intra-refresh / ctu=64 / min-cu-size=8 / no-rect / no-amp / max-tu-size=32 / tu-inter-depth=2 / tu-intra-depth=2 / limit-tu=4 / rdoq-level=2 / dynamic-rd=0.00 / no-ssim-rd / signhide / no-tskip / nr-intra=0 / nr-inter=0 / no-constrained-intra / strong-intra-smoothing / max-merge=3 / limit-refs=2 / limit-modes / me=3 / subme=7 / merange=64 / temporal-mvp / weightp / weightb / no-analyze-src-pics / deblock=-2:-2 / no-sao / no-sao-non-deblock / rd=6 / no-early-skip / rskip / no-fast-intra / no-tskip-fast / no-cu-lossless / b-intra / no-splitrd-skip / rdpenalty=0 / psy-rd=2.00 / psy-rdoq=1.00 / no-rd-refine / no-lossless / cbqpoffs=0 / crqpoffs=0 / rc=crf / crf=18.0 / qcomp=0.60 / qpstep=4 / stats-write=0 / stats-read=0 / vbv-maxrate=160000 / vbv-bufsize=160000 / vbv-init=0.9 / crf-max=0.0 / crf-min=0.0 / ipratio=1.40 / pbratio=1.30 / aq-mode=1 / aq-strength=0.70 / no-cutree / zone-count=0 / no-strict-cbr / qg-size=32 / no-rc-grain / qpmax=69 / qpmin=0 / no-const-vbv / sar=0 / overscan=0 / videoformat=5 / range=0 / colorprim=2 / transfer=2 / colormatrix=1 / chromaloc=0 / display-window=0 / max-cll=0,0 / min-luma=0 / max-luma=1023 / log2-max-poc-lsb=8 / vui-timing-info / vui-hrd-info / slices=1 / no-opt-qp-pps / no-opt-ref-list-length-pps / no-multi-pass-opt-rps / scenecut-bias=0.05 / no-opt-cu-delta-qp / no-aq-motion / no-hdr / no-hdr-opt / no-dhdr10-opt / no-idr-recovery-sei / analysis-reuse-level=5 / scale-factor=0 / refine-intra=0 / refine-inter=0 / refine-mv=0 / no-limit-sao / ctu-info=0 / no-lowpass-dct / refine-mv-type=0 / copy-pic=1 / max-ausize-factor=1.0 / no-dynamic-refine / no-single-sei
Default : Да
Forced : Да
Цветовой диапазон : Limited
Коэффициенты матрицы : BT.709

Аудио #1
Идентификатор : 2
Формат : AC-3
Формат/Информация : Audio Coding 3
Идентификатор кодека : A_AC3
Продолжительность : 1 ч. 32 м.
Вид битрейта : Постоянный
Битрейт : 640 Кбит/сек
Каналы : 6 каналов
Расположение каналов : Front: L C R, Side: L R, LFE
Частота : 48,0 КГц
Частота кадров : 31,250 кадров/сек (1536 SPF)
Битовая глубина : 16 бит
Метод сжатия : С потерями
Размер потока : 424 Мбайт (6%)
Язык : Russian
ServiceKind/String : Complete Main
Default : Да
Forced : Нет

Аудио #2
Идентификатор : 3
Формат : AC-3
Формат/Информация : Audio Coding 3
Идентификатор кодека : A_AC3
Продолжительность : 1 ч. 32 м.
Вид битрейта : Постоянный
Битрейт : 640 Кбит/сек
Каналы : 6 каналов
Расположение каналов : Front: L C R, Side: L R, LFE
Частота : 48,0 КГц
Частота кадров : 31,250 кадров/сек (1536 SPF)
Битовая глубина : 16 бит
Метод сжатия : С потерями
Размер потока : 424 Мбайт (6%)
Язык : English
ServiceKind/String : Complete Main
Default : Нет
Forced : Нет

Текст
Идентификатор : 4
Формат : UTF-8
Идентификатор кодека : S_TEXT/UTF8
Идентификатор кодека/Информация : UTF-8 Plain Text
Продолжительность : 1 ч. 26 м.
Битрейт : 61 бит/сек
ElementCount : 882
Размер потока : 39,4 Кбайт (0%)
Язык : Russian
Default : Нет
Forced : Нет

Меню
00:00:00.000 : en:
00:04:58.715 : en:
00:09:48.004 : en:
00:13:26.889 : en:
00:19:06.228 : en:
00:22:33.060 : en:
00:26:55.614 : en:
00:30:53.601 : en:
00:34:46.250 : en:
00:37:25.701 : en:
00:42:28.546 : en:
00:48:38.290 : en:
00:53:38.423 : en:
01:00:50.605 : en:
01:04:28.114 : en:
01:10:41.987 : en:
01:14:09.987 : en:
01:19:46.865 : en:
01:23:15.240 : en:
01:28:02.610 : en:
Загрузка...Cкриншот1 Ведьма / The VVitch: A New-England Folktale (2015) BDRip 1080p [HEVC] 10 bit от DSIOЗагрузка...Cкриншот2 Ведьма / The VVitch: A New-England Folktale (2015) BDRip 1080p [HEVC] 10 bit от DSIOЗагрузка...Cкриншот3 Ведьма / The VVitch: A New-England Folktale (2015) BDRip 1080p [HEVC] 10 bit от DSIOЗагрузка...Cкриншот4 Ведьма / The VVitch: A New-England Folktale (2015) BDRip 1080p [HEVC] 10 bit от DSIO
Сэмпл Торрент🧲 Магнет

Рейтинги КП и IMDB, кнопки "Позвать в чате" и "Спасибо", а также мультитрекерная статистика доступны только зарегистрированным/авторизованным пользователям!

Файлы: 1
  • Ведьма - The VVitch. A New-England Folktale (2015)(1080p) KORSAR.mkv   6.55 ГБ
Поблагодарили: 2
brukvalub, GIS88
Admin
177006.55 ГБ

Добавление нового комментария

Добавление комментариев доступно только зарегистрированным/авторизованным пользователям.
Аватар Студень
  Студень  
Дима растёт в плане кодинга. Тут больше ничего и не скажешь. Респект ему😎