Регистрация / Смена пароля

💬 Мини-чат

04.12.2020 с 11:15 до 12:30 (по мск) будут проводится технические работы на стороне хостинг-провайдера.
AlchemistРаздайте, пожалуйста, Самолет президента / Air Force One (1997) BDRip 1080p [HEVC] 10 bit от HANNIBAL
AdminOldGamer, пролистывать не будут, но зато через поиск найдут.
OldGamerвряд ли кто будет потом пролистывать 1700 постов в ВК
OldGamerда думаю не надо
AdminПопробую связаться с техподдержкой, объясню ситуацию, попрошу на несколько минут снять лимит, если технически возможно. Может пойдут на встречу.
OldGamerо, и на принца персии отдача пошла, не прошло и года :)
Admin46 перенеслись + 4 были.
OldGamerпрошло?
AdminПоходу лимит 50 постов в день. Мда. Это же больше месяца потребуется, чтобы переносить.
AdminПопробую кусками по 100.
OldGamer"Попытка - не пытка" (с) :)
AdminСкрипт уже написал. Но не знаю есть ли в ВК лимит на количество постов в сутки. А то 1700 постов полетит туда.
AdminМожет добавить все существующие раздачи в ВК пока там нет пользователей? Чтобы потом не заспамить им новостную ленту. А то группа как-то пуста.
OldGamerSpartanec1308, привет
OldGamerSpartanec1308, 😃 ну бывает
Spartanec1308OldGamer, Привет!По ходу на счет Бронкса не понятка была.😁😁😁
AdminТеперь при добавлении или обновлении раздач будет происходить моментальный автопостинг в ВК. Адрес группы - https://vk.com/rips.club Кнопку на ВК добавлю завтра. Решить бы куда лучше её добавить.
AdminElico, возможно у вас проблемы с провайдером и доступом к некоторым IP.
AdminElico, с ссылками всё в порядке, проблема не в них. Какой у вас клиент? Заскриньте вкладку трекеры и отправьте мне в ЛС.
OldGamerElico, я не уходил с раздачи этого фильма. Возможно у вас проблемы с подключением. Может быть настройки торрент-клиента нужно менять.
  • abtr
  • MPBD
  • pmihail99
Отправка сообщений доступна только зарегистрированным/авторизованным пользователям.
Онлайн (за 10 мин.): 3

Кошмар на улице Вязов / A Nightmare on Elm Street (2010) BDRip 1080p [HEVC] 10 bit от Cthulhu

HEVC
10 bit
Обложка Кошмар на улице Вязов / A Nightmare on Elm Street (2010) BDRip 1080p [HEVC] 10 bit от Cthulhu Год: 2010
Страна: США
Студия: New Line Cinema
Жанр: Ужасы, Триллер, Фэнтези
Продолжительность: 01:35:31

Режиссер: Сэмюэл Байер
В ролях: Джеки Эрл Хейли, Кайл Галлнер, Руни Мара, Кэти Кэссиди, Томас Деккер, Келлан Латс, Клэнси Браун, Конни Бриттон, Лия Д. Мортенсен, Джулиана Дэмм

Описание: Группу подростков из пригорода преследует один и тот же кошмар: в снах за ними крадется жуткий, обезображенный убийца — Фредди Крюгер. Они могут защитить друг друга наяву, во сне же — остаются один на один с ожившим кошмаром, и шансы спастись стремительно приближаются к нулю… ведь, убитые во сне, они умирают и наяву.


Видео: 1920x800, 5491 Kbps
Аудио1: AC3, 6 ch, 448 Kbps - РусскийРусский, Дублированный (Лицензия)
Аудио2: AC3, 6 ch, 448 Kbps - Оригинал
Субтитры: Русские, english SDH

Как за пару секунд удалить ненужные аудиодорожки и субтитры (Внимание! После удаления вы не сможете поддержать раздачу)

Медиаинфо
General
Unique ID : 170966277317195834460096081741895733322 (0x809EE844965CD9EEB6353E860708904A)
Complete name : F:\HEVC\A Nightmare on Elm Street. Collection\A Nightmare on Elm Street (2010) BDRip 1080p [HEVC] 10bit_Cthulhu.mkv
Format : Matroska
Format version : Version 4 / Version 2
File size : 4.26 GiB
Duration : 1 h 35 min
Overall bit rate : 6 389 kb/s
Movie name : A Nightmare on Elm Street (2010)_rip_by_Cthulhu
Encoded date : UTC 2018-05-15 19:25:57
Writing application : mkvmerge v21.0.0 ('Tardigrades Will Inherit The Earth') 64-bit
Writing library : libebml v1.3.5 + libmatroska v1.4.8
Cover : Yes
Attachments : cover9.jpg

Video
ID : 1
Format : HEVC
Format/Info : High Efficiency Video Coding
Format profile : Main 10@L4.1@High
Codec ID : V_MPEGH/ISO/HEVC
Duration : 1 h 35 min
Bit rate : 5 491 kb/s
Width : 1 920 pixels
Height : 800 pixels
Display aspect ratio : 2.40:1
Frame rate mode : Constant
Frame rate : 23.976 (24000/1001) FPS
Color space : YUV
Chroma subsampling : 4:2:0
Bit depth : 10 bits
Bits/(Pixel*Frame) : 0.149
Stream size : 3.66 GiB (86%)
Writing library : x265 2.7+340-aa9102400f24:[Windows][GCC 8.0.1][64 bit] 10bit
Encoding settings : cpuid=1049583 / frame-threads=4 / numa-pools=4 / wpp / no-pmode / no-pme / no-psnr / no-ssim / log-level=2 / input-csp=1 / input-res=1920x800 / interlace=0 / total-frames=137423 / level-idc=0 / high-tier=1 / uhd-bd=0 / ref=5 / no-allow-non-conformance / no-repeat-headers / annexb / no-aud / no-hrd / info / hash=0 / no-temporal-layers / open-gop / min-keyint=24 / keyint=240 / gop-lookahead=0 / bframes=8 / b-adapt=2 / b-pyramid / bframe-bias=0 / rc-lookahead=40 / lookahead-slices=4 / scenecut=40 / radl=0 / no-intra-refresh / ctu=64 / min-cu-size=8 / rect / no-amp / max-tu-size=32 / tu-inter-depth=3 / tu-intra-depth=3 / limit-tu=4 / rdoq-level=1 / dynamic-rd=0.00 / no-ssim-rd / signhide / no-tskip / nr-intra=0 / nr-inter=0 / no-constrained-intra / no-strong-intra-smoothing / max-merge=3 / limit-refs=2 / limit-modes / me=3 / subme=7 / merange=57 / temporal-mvp / weightp / weightb / no-analyze-src-pics / deblock=-3:-3 / no-sao / no-sao-non-deblock / rd=4 / no-early-skip / rskip / no-fast-intra / no-tskip-fast / no-cu-lossless / no-b-intra / no-splitrd-skip / rdpenalty=0 / psy-rd=2.00 / psy-rdoq=1.00 / no-rd-refine / no-lossless / cbqpoffs=0 / crqpoffs=0 / rc=crf / crf=18.0 / qcomp=0.60 / qpstep=4 / stats-write=0 / stats-read=0 / vbv-maxrate=50000 / vbv-bufsize=50000 / vbv-init=0.9 / crf-max=0.0 / crf-min=0.0 / ipratio=1.40 / pbratio=1.30 / aq-mode=1 / aq-strength=1.00 / cutree / zone-count=0 / no-strict-cbr / qg-size=32 / no-rc-grain / qpmax=69 / qpmin=0 / no-const-vbv / sar=1 / overscan=0 / videoformat=5 / range=0 / colorprim=1 / transfer=1 / colormatrix=1 / chromaloc=0 / display-window=0 / max-cll=0,0 / min-luma=0 / max-luma=1023 / log2-max-poc-lsb=8 / vui-timing-info / vui-hrd-info / slices=1 / no-opt-qp-pps / no-opt-ref-list-length-pps / no-multi-pass-opt-rps / scenecut-bias=0.05 / no-opt-cu-delta-qp / no-aq-motion / no-hdr / no-hdr-opt / no-dhdr10-opt / no-idr-recovery-sei / analysis-reuse-level=5 / scale-factor=0 / refine-intra=0 / refine-inter=0 / refine-mv=0 / no-limit-sao / ctu-info=0 / no-lowpass-dct / refine-mv-type=0 / copy-pic=1 / max-ausize-factor=1.0 / no-dynamic-refine / no-single-sei
Language : English
Default : Yes
Forced : No
Color range : Limited
Color primaries : BT.709
Transfer characteristics : BT.709
Matrix coefficients : BT.709

Audio #1
ID : 2
Format : AC-3
Format/Info : Audio Coding 3
Format settings, Endianness : Big
Codec ID : A_AC3
Duration : 1 h 35 min
Bit rate mode : Constant
Bit rate : 448 kb/s
Channel(s) : 6 channels
Channel positions : Front: L C R, Side: L R, LFE
Sampling rate : 48.0 kHz
Frame rate : 31.250 FPS (1536 SPF)
Bit depth : 16 bits
Compression mode : Lossy
Stream size : 306 MiB (7%)
Language : Russian
Service kind : Complete Main
Default : Yes
Forced : No

Audio #2
ID : 3
Format : AC-3
Format/Info : Audio Coding 3
Format settings, Endianness : Big
Codec ID : A_AC3
Duration : 1 h 35 min
Bit rate mode : Constant
Bit rate : 448 kb/s
Channel(s) : 6 channels
Channel positions : Front: L C R, Side: L R, LFE
Sampling rate : 48.0 kHz
Frame rate : 31.250 FPS (1536 SPF)
Bit depth : 16 bits
Compression mode : Lossy
Stream size : 306 MiB (7%)
Language : English
Service kind : Complete Main
Default : No
Forced : No

Text #1
ID : 4
Format : UTF-8
Codec ID : S_TEXT/UTF8
Codec ID/Info : UTF-8 Plain Text
Duration : 1 h 27 min
Bit rate : 55 b/s
Count of elements : 776
Stream size : 35.7 KiB (0%)
Language : Russian
Default : Yes
Forced : No

Text #2
ID : 5
Format : UTF-8
Codec ID : S_TEXT/UTF8
Codec ID/Info : UTF-8 Plain Text
Duration : 1 h 29 min
Bit rate : 41 b/s
Count of elements : 944
Stream size : 27.0 KiB (0%)
Language : English
Default : No
Forced : No

Menu
00:00:00.000 : en:Chapter 1
00:09:25.189 : en:Chapter 2
00:20:58.799 : en:Chapter 3
00:30:23.363 : en:Chapter 4
00:40:56.036 : en:Chapter 5
00:53:04.931 : en:Chapter 6
01:01:09.999 : en:Chapter 7
01:10:08.162 : en:Chapter 8
01:20:01.254 : en:Chapter 9
01:29:58.559 : en:Chapter 10
Загрузка...Cкриншот1 Кошмар на улице Вязов / A Nightmare on Elm Street (2010) BDRip 1080p [HEVC] 10 bit от CthulhuЗагрузка...Cкриншот2 Кошмар на улице Вязов / A Nightmare on Elm Street (2010) BDRip 1080p [HEVC] 10 bit от CthulhuЗагрузка...Cкриншот3 Кошмар на улице Вязов / A Nightmare on Elm Street (2010) BDRip 1080p [HEVC] 10 bit от CthulhuЗагрузка...Cкриншот4 Кошмар на улице Вязов / A Nightmare on Elm Street (2010) BDRip 1080p [HEVC] 10 bit от Cthulhu
Сэмпл Торрент🧲 Магнет

Рейтинги КП и IMDB, кнопки "Позвать в чате" и "Спасибо", а также мультитрекерная статистика сидов и пиров доступны только зарегистрированным/авторизованным пользователям!

Файлы: 1
  • A Nightmare on Elm Street (2010) BDRip 1080p [HEVC] 10bit_Cthulhu.mkv   4.26 ГБ
Поблагодарили: 4
brukvalub, Guga, Maximilian_1932, warner98
Cthulhu
2103004.26 ГБ

Добавление нового комментария

Добавление комментариев доступно только зарегистрированным/авторизованным пользователям.
Аватар не указан
  warner98  
раздайте пожалуйста))))
Аватар Денис
  Денис  
Не хуже оригинала!