💬 Мини-чат

BrooklynOldGamer, Ок, спасибо, качаю.
OldGamerBrooklyn, они все на раздаче пока что
BrooklynOldGamer, Пораздавайте, пожалуйста, все сезоны сериала "Гримм" ближайшие 3 дня, очень хочу их забрать. Качество отличное. Заранее Благодарен.
StarLordСообщение удалено (удалил: StarLord)
OldGamerвыводить
mafo2Admin, можно вывести, наглядно будет
StarLordAdmin, +
AdminНадпись HDR выводить на обложку?
OldGamerGiggalo, но лучше всего вообще не затрагивайте этот ключ, по умолчанию будет установлено оптимальное значение
OldGamerGiggalo, но если уж очень хочется то пишите --frame-threads 3
OldGamerGiggalo, а зачем его менять?) нужное значение устанавливается автоматически
GiggaloДобрый вечер всем! OldGamer Покажи пожалуйста почему когда пишу в командной строке frame-threads=3 он не меняется. Какой там стоит 13 он его и держит, а ругие установки спокойно меняет?
AdminStarLord, спасибо. Пока сойдет.
StarLordAdmin, ага, вижу
StarLordAdmin, а как должно брать?
AdminStarLord, ты шаришь?
AdminStarLord, у меня сейчас такая, но с точками беда. Доработать бы (https?://([-\w\.]+)+(:\d+)?(/([-\w/_:%]*(\.\w+)*(\?\S+)?)?)?)
AdminStarLord, скрины в bb некорректно берет
StarLordwww, ftp(s), http(s), #, :, &
StarLordAdmin, все мои кейсы покрыла
  • OldGamer
  • donadar
  • InSpector
  • moonson
  • Plushko
Отправка сообщений доступна только зарегистрированным/авторизованным пользователям.
Онлайн (за 10 мин.): 5

Водный мир / Waterworld (1995) [Theatrical Cut] BDRip 1080p [HEVC] 10 bit от OldGamer (RG RIPS CLUB)

HEVC
10 bit
Обложка Водный мир / Waterworld (1995) [Theatrical Cut] BDRip 1080p [HEVC] 10 bit от OldGamer (RG RIPS CLUB) Год: 1995
Страна: США
Студия: Universal Pictures
Жанр: Фантастика, Боевик, Приключения
Продолжительность: 02:15:11

Режиссер: Кевин Рейнольдс
В ролях: Кевин Костнер, Деннис Хоппер, Джинн Трипплхорн, Тина Мажорино, Майкл Джитер, Джек Блэк, Ким Коутс, Чайм Джирафи, Рик Авилес, Р.Д. Колл

Описание: В далеком будущем полярные снега растаяли, покрыв всю Землю водой. Авторы погружают нас в фантастический мир немногочисленных людей, живущих на воде, где самым дорогим являются пресная вода, земля, еда, сигареты и т. п. «Курильщики» убивают, грабят, обращают в рабство — используют двигатели внутреннего сгорания. Все остальные пытаются выжить, кто как может, а Кевин Костнер плавает сам по себе на своей фантастической лодке, но объединяет их всех одно — все они ищут остров. В одной из колоний живут очень красивая женщина и девочка с татуировкой на спине. А татуировка эта — часть карты, на которой и указан этот остров. Естественно, за ней и охотятся «курильщики»…


Видео: 1920x1040, 11200 Kbps
Аудио: AC3, 6 ch, 448 Kbps - РусскийРусский, Многоголосый
Субтитры: отсутствуют

Медиаинфо
Формат : HEVC
Формат/Информация : High Efficiency Video Coding
Профиль формата : Main 10@L4.1@High
Идентификатор кодека : V_MPEGH/ISO/HEVC
Продолжительность : 2 ч. 15 м.
Битрейт : 11,2 Мбит/сек
Ширина : 1920 пикселей
Высота : 1040 пикселей
Соотношение сторон : 1,85:1
Режим частоты кадров : Постоянный
Частота кадров : 23,976 (24000/1001) кадра/сек
Цветовое пространство : YUV
Субдискретизация насыщенности : 4:2:0
Битовая глубина : 10 бит
Бит/(Пиксели*Кадры) : 0.234
Размер потока : 10,6 Гбайт (94%)
Библиотека кодирования : x265 2.8+74-fd517ae68f93:[Mac OS X][clang 9.1.0][64 bit] 10bit
Настройки программы : cpuid=1111039 / frame-threads=14 / wpp / no-pmode / no-pme / no-psnr / no-ssim / log-level=3 / input-csp=1 / input-res=1920x1040 / interlace=0 / total-frames=0 / level-idc=41 / high-tier=1 / uhd-bd=0 / ref=5 / allow-non-conformance / no-repeat-headers / annexb / no-aud / no-hrd / info / hash=0 / no-temporal-layers / open-gop / min-keyint=23 / keyint=240 / gop-lookahead=0 / bframes=9 / b-adapt=2 / b-pyramid / bframe-bias=0 / rc-lookahead=60 / lookahead-slices=6 / scenecut=40 / radl=0 / no-intra-refresh / ctu=64 / min-cu-size=8 / rect / amp / max-tu-size=32 / tu-inter-depth=4 / tu-intra-depth=4 / limit-tu=0 / rdoq-level=2 / dynamic-rd=0.00 / no-ssim-rd / signhide / no-tskip / nr-intra=0 / nr-inter=0 / no-constrained-intra / no-strong-intra-smoothing / max-merge=5 / limit-refs=2 / no-limit-modes / me=3 / subme=7 / merange=57 / temporal-mvp / weightp / weightb / no-analyze-src-pics / deblock=-3:-3 / no-sao / no-sao-non-deblock / rd=6 / no-early-skip / rskip / no-fast-intra / no-tskip-fast / no-cu-lossless / no-b-intra / no-splitrd-skip / rdpenalty=0 / psy-rd=2.00 / psy-rdoq=1.00 / no-rd-refine / no-lossless / cbqpoffs=0 / crqpoffs=0 / rc=crf / crf=18.0 / qcomp=0.60 / qpstep=4 / stats-write=0 / stats-read=0 / vbv-maxrate=50000 / vbv-bufsize=50000 / vbv-init=0.9 / crf-max=0.0 / crf-min=0.0 / ipratio=1.40 / pbratio=1.30 / aq-mode=2 / aq-strength=1.00 / cutree / zone-count=0 / no-strict-cbr / qg-size=32 / no-rc-grain / qpmax=69 / qpmin=0 / no-const-vbv / sar=1 / overscan=0 / videoformat=5 / range=0 / colorprim=1 / transfer=1 / colormatrix=1 / chromaloc=0 / display-window=0 / max-cll=0,0 / min-luma=0 / max-luma=1023 / log2-max-poc-lsb=8 / vui-timing-info / vui-hrd-info / slices=1 / no-opt-qp-pps / no-opt-ref-list-length-pps / no-multi-pass-opt-rps / scenecut-bias=0.00 / no-opt-cu-delta-qp / aq-motion / no-hdr / no-hdr-opt / no-dhdr10-opt / no-idr-recovery-sei / analysis-reuse-level=5 / scale-factor=0 / refine-intra=0 / refine-inter=0 / refine-mv=0 / no-limit-sao / ctu-info=0 / no-lowpass-dct / refine-mv-type=0 / copy-pic=1 / max-ausize-factor=1.0 / no-dynamic-refine / no-single-sei
Язык : English
Default : Да
Forced : Нет
Цветовой диапазон : Limited
Основные цвета : BT.709
Характеристики трансфера : BT.709
Коэффициенты матрицы : BT.709

Аудио
Идентификатор : 2
Формат : AC-3
Формат/Информация : Audio Coding 3
Коммерческое название : Dolby Digital
Идентификатор кодека : A_AC3
Продолжительность : 2 ч. 15 м.
Вид битрейта : Постоянный
Битрейт : 448 Кбит/сек
Каналы : 6 каналов
Channel layout : L R C LFE Ls Rs
Частота : 48,0 КГц
Частота кадров : 31,250 кадров/сек (1536 SPF)
Битовая глубина : 16 бит
Метод сжатия : С потерями
Размер потока : 433 Мбайт (4%)
Заголовок : Surround 5.1
Язык : Russian
Service kind : Complete Main
Default : Да
Forced : Нет

Меню
00:00:00.000 : :Chapter 01
00:04:59.966 : :Chapter 02
00:10:00.141 : :Chapter 03
00:15:00.524 : :Chapter 04
00:20:00.490 : :Chapter 05
00:24:59.873 : :Chapter 06
00:29:59.964 : :Chapter 07
00:34:59.847 : :Chapter 08
00:40:00.064 : :Chapter 09
00:44:59.905 : :Chapter 10
00:50:00.247 : :Chapter 11
00:54:59.754 : :Chapter 12
01:00:00.138 : :Chapter 13
01:04:59.770 : :Chapter 14
01:09:59.612 : :Chapter 15
01:15:00.579 : :Chapter 16
01:20:00.462 : :Chapter 17
01:25:00.470 : :Chapter 18
01:29:59.685 : :Chapter 19
01:34:59.777 : :Chapter 20
01:40:00.035 : :Chapter 21
01:45:00.168 : :Chapter 22
01:50:00.051 : :Chapter 23
01:55:00.226 : :Chapter 24
02:00:00.234 : :Chapter 25
02:05:00.201 : :Chapter 26
02:09:59.833 : :Chapter 27
02:15:00.092 : :Chapter 28
Загрузка...Cкриншот1 Водный мир / Waterworld (1995) [Theatrical Cut] BDRip 1080p [HEVC] 10 bit от OldGamer (RG RIPS CLUB)Загрузка...Cкриншот2 Водный мир / Waterworld (1995) [Theatrical Cut] BDRip 1080p [HEVC] 10 bit от OldGamer (RG RIPS CLUB)Загрузка...Cкриншот3 Водный мир / Waterworld (1995) [Theatrical Cut] BDRip 1080p [HEVC] 10 bit от OldGamer (RG RIPS CLUB)Загрузка...Cкриншот4 Водный мир / Waterworld (1995) [Theatrical Cut] BDRip 1080p [HEVC] 10 bit от OldGamer (RG RIPS CLUB)
Релиз-группа: RIPS CLUB
Сэмпл Торрент🧲 Магнет

Рейтинги КП и IMDB, кнопки "Позвать в чате" и "Спасибо", а также мультитрекерная статистика сидов и пиров доступны только зарегистрированным/авторизованным пользователям!

Файлы: 1
  • Водный мир.mkv   11.24 ГБ
Поблагодарили: 4
curly2, denisptp4, mixeyvrn84, Remontaz
OldGamer
122100011.24 ГБ

Добавление нового комментария

Добавление комментариев доступно только зарегистрированным/авторизованным пользователям.
Аватар OldGamer
  OldGamer  
savage писал(а):
Встаньте на раздачу кто нибудь пожалуйста
скачайте лучше релиз от Ктулху
Аватар не указан
  savage  
Встаньте на раздачу кто нибудь пожалуйста
Аватар gatasalvaje
  gatasalvaje  
Переписал еще раз, все нормально, открылся.
Аватар OldGamer
  OldGamer  (Отредактировал OldGamer)    
gatasalvaje писал(а):
Блин опять фильм не открылся, как и в прошлом году, все фильмы воспроизводятся, а этот как заколдованный, не идет.
Я так понимаю, не открылся на приставке или смарт-тв?
Аватар не указан
  hamshut  
Блин, жаль что расширенная версия не выходила, кроме как на ДВД.
Вот она мощная была, плюс поясняет, как он нашел в конце их танкер, ну и там аж целых 40 минут дополнений, если не ошибаюсь было.
Аватар OldGamer
  OldGamer  
Cthulhu писал(а):
А MPC не катит?
Media Player Classic ??? под wine запустился, но изображение с дефектами идёт. Видимо надо доустанавливать directX и т.п.
Буду сайт vlc изучать, это похоже единственный более-менее продвинутый проигрыватель, всё остальное - однокнопочное гуано
Аватар Cthulhu
  Cthulhu  
OldGamer писал(а):
Понял, о чём речь)) но не видел такой возможности. Если только где в глубинах vlc запрятали
А MPC не катит?
Аватар OldGamer
  OldGamer  
Cthulhu писал(а):
Если OSD включить тип кадра плеер показывает?
Понял, о чём речь)) но не видел такой возможности. Если только где в глубинах vlc запрятали
Аватар Cthulhu
  Cthulhu  
OldGamer писал(а):
Проверил уже 4 разных, тупо скачут по времени. Из-под wine попробовал image uploader, он вроде сам должен выдирать ключевые кадры и сразу их грузить на хостинги, но какая-то дичь получается. А PotPlayer из-под wine вроде бы семпл ещё открывает, а на фильме вешается наглухо.
Если OSD включить тип кадра плеер показывает?
Аватар OldGamer
  OldGamer  
Cthulhu писал(а):
А что есть разница, в Win или в Mac? Вроде в каждом проигрывателе по ключевым кадрам переходы делаются.
Проверил уже 4 разных, тупо скачут по времени. Из-под wine попробовал image uploader, он вроде сам должен выдирать ключевые кадры и сразу их грузить на хостинги, но какая-то дичь получается. А PotPlayer из-под wine вроде бы семпл ещё открывает, а на фильме вешается наглухо.
Аватар Cthulhu
  Cthulhu  (Отредактировал Cthulhu)    
OldGamer писал(а):
если кто подскажет, как в macos выдёргивать из фильма ключевые кадры для скриншотов - буду весьма благодарен
реально в плейерах скриншотитится мазня в движении
А что есть разница, в Win или в Mac? Вроде в каждом проигрывателе по ключевым кадрам переходы делаются. Если на скрине мазня в движении, это совсем не значит что это НЕ ключевой кадр
Аватар OldGamer
  OldGamer  
если кто подскажет, как в macos выдёргивать из фильма ключевые кадры для скриншотов - буду весьма благодарен
реально в плейерах скриншотитится мазня в движении