💬 Мини-чат

Убедительная просьба не обсуждать тут политику.
AdminЛёшикоБэст, вроде потихоньку идёт. Подождем, если не докачается, то встану.
AdminЛёшикоБэст, перекачайте торрент, а то в профиле не отображается ждете или уже нет
ЛёшикоБэстРаздайте, пожалуйста, Неудержимые / The Expendables (2010) [Theatrical Cut] BDRip 1080p [HEVC] 10 bit от Spartanec1308
OldGamerДа, есть.
ЛёшикоБэстДоброго вечера) Скажите пожалуйста, есть ли в планах сделать релиз дилогии "Зорро" с Антонио Бандерасом?
HANNIBALAdmin, 👍
AdminГоро, встал
ГороРаздайте, пожалуйста, Хищники / Predators (2010) BDRip 1080p [HEVC] 10 bit от HANNIBAL
AdminHANNIBAL, привет. Не помню за сколько брал, но продление в этот раз обошлось примерно в $14 со всякими комиссиями. А аренда VDS обходится примерно в $30-35 за год. Не исключено, что всё это подорожает. Пока что пожертвования с трудом покрывают расходы. Иногда если требуется и со своего кармана оплачиваю, не страшно. Прорвемся.
HANNIBALсколько сейчас стоит
HANNIBALAdmin, ПРИВЕТ
AdminНаконец-то получил банковскую карту. Продлил доменное имя (адрес сайта) на год.
  • ivan_1965
Отправка сообщений доступна только зарегистрированным/авторизованным пользователям.
Онлайн (за 10 мин.): 1

Голодные игры: Сойка-пересмешница. Часть I / The Hunger Games: Mockingjay - Part 1 (2014) BDRip 1080p [HEVC] 10 bit от M@kSIMus

HEVC
10 bit
Обложка Голодные игры: Сойка-пересмешница. Часть I / The Hunger Games: Mockingjay - Part 1 (2014) BDRip 1080p [HEVC] 10 bit от M@kSIMus Год: 2014
Страна: США
Студия: Color Force, Lionsgate
Жанр: Фантастика, Боевик, Приключения, Драма
Продолжительность: 02:02:45

Режиссер: Френсис Лоуренс
В ролях: Дженнифер Лоуренс, Джош Хатчерсон, Лиам Хемсворт, Вуди Харрельсон, Дональд Сазерленд, Филип Сеймур Хоффман, Джулианна Мур, Уиллоу Шилдс, Сэм Клафлин, Элизабет Бэнкс

Описание: 75-ые Голодные игры изменили все. Китнисс нарушила правила, и непоколебимое до той поры деспотичное правление Капитолия пошатнулось. У людей появилась надежда, и ее символ — Сойка-пересмешница. Теперь, чтобы освободить захваченного в плен Пита и защитить своих близких, Китнисс придется сражаться в настоящих битвах и стать еще сильнее, чем на арене игр.


Видео: 1920x804, 2775 Kbps
Аудио1: AC3, 6 ch, 640 Kbps - РусскийРусский, Дублированный (Лицензия)
Аудио2: AC3, 6 ch, 448 Kbps - АнглийскийАнглийский, Оригинал
Субтитры: Русские (форсированные, полные)

Как за пару секунд удалить ненужные аудиодорожки и субтитры (Внимание! После удаления вы не сможете поддержать раздачу)

Медиаинфо
General
Unique ID : 242362065218183701487908594488537626431 (0xB6553C628C4A0981575193EF8885B73F)
Complete name : E:\Torrent\03. Голодные игры - Сойка-пересмешница. Часть 1 (2014) BDRip 1080p [HEVC] 10 bit.mkv
Format : Matroska
Format version : Version 4 / Version 2
File size : 3.32 GiB
Duration : 2 h 2 min
Overall bit rate : 3 865 kb/s
Movie name : Rip_by_M@kSIMus
Encoded date : UTC 2018-11-13 01:03:54
Writing application : mkvmerge v28.0.0 ('Voice In My Head') 64-bit
Writing library : libebml v1.3.6 + libmatroska v1.4.9
Cover : Yes
Attachments : cover.jpg

Video
ID : 1
Format : HEVC
Format/Info : High Efficiency Video Coding
Format profile : Main 10@L4.1@High
Codec ID : V_MPEGH/ISO/HEVC
Duration : 2 h 2 min
Bit rate : 2 775 kb/s
Width : 1 920 pixels
Height : 800 pixels
Display aspect ratio : 2.40:1
Frame rate mode : Constant
Frame rate : 23.976 (24000/1001) FPS
Color space : YUV
Chroma subsampling : 4:2:0
Bit depth : 10 bits
Bits/(Pixel*Frame) : 0.075
Stream size : 2.38 GiB (72%)
Writing library : x265 2.8+74-fd517ae68f93:[Windows][GCC 7.3.0][64 bit] 10bit
Encoding settings : cpuid=1049583 / frame-threads=5 / numa-pools=4 / wpp / no-pmode / no-pme / no-psnr / no-ssim / log-level=3 / input-csp=1 / input-res=1920x800 / interlace=0 / total-frames=0 / level-idc=41 / high-tier=1 / uhd-bd=0 / ref=5 / allow-non-conformance / no-repeat-headers / annexb / no-aud / no-hrd / info / hash=0 / no-temporal-layers / open-gop / min-keyint=24 / keyint=240 / gop-lookahead=0 / bframes=9 / b-adapt=2 / b-pyramid / bframe-bias=0 / rc-lookahead=40 / lookahead-slices=5 / scenecut=40 / radl=0 / no-intra-refresh / ctu=64 / min-cu-size=8 / rect / amp / max-tu-size=32 / tu-inter-depth=1 / tu-intra-depth=1 / limit-tu=0 / rdoq-level=0 / dynamic-rd=0.00 / no-ssim-rd / signhide / no-tskip / nr-intra=0 / nr-inter=0 / no-constrained-intra / strong-intra-smoothing / max-merge=2 / limit-refs=3 / no-limit-modes / me=3 / subme=7 / merange=57 / temporal-mvp / weightp / no-weightb / no-analyze-src-pics / deblock=-3:-3 / no-sao / no-sao-non-deblock / rd=3 / no-early-skip / rskip / no-fast-intra / no-tskip-fast / no-cu-lossless / no-b-intra / no-splitrd-skip / rdpenalty=0 / psy-rd=2.00 / psy-rdoq=0.00 / no-rd-refine / no-lossless / cbqpoffs=0 / crqpoffs=0 / rc=crf / crf=16.0 / qcomp=0.60 / qpstep=4 / stats-write=0 / stats-read=0 / vbv-maxrate=50000 / vbv-bufsize=50000 / vbv-init=0.9 / crf-max=0.0 / crf-min=0.0 / ipratio=1.40 / pbratio=1.30 / aq-mode=1 / aq-strength=1.00 / cutree / zone-count=0 / no-strict-cbr / qg-size=32 / no-rc-grain / qpmax=69 / qpmin=0 / no-const-vbv / sar=1 / overscan=0 / videoformat=5 / range=0 / colorprim=1 / transfer=1 / colormatrix=1 / chromaloc=0 / display-window=0 / max-cll=0,0 / min-luma=0 / max-luma=1023 / log2-max-poc-lsb=8 / vui-timing-info / vui-hrd-info / slices=1 / no-opt-qp-pps / no-opt-ref-list-length-pps / no-multi-pass-opt-rps / scenecut-bias=0.05 / no-opt-cu-delta-qp / no-aq-motion / no-hdr / no-hdr-opt / no-dhdr10-opt / no-idr-recovery-sei / analysis-reuse-level=5 / scale-factor=0 / refine-intra=0 / refine-inter=0 / refine-mv=0 / no-limit-sao / ctu-info=0 / no-lowpass-dct / refine-mv-type=0 / copy-pic=1 / max-ausize-factor=1.0 / no-dynamic-refine / no-single-sei
Language : English
Default : Yes
Forced : No
Color range : Limited
Color primaries : BT.709
Transfer characteristics : BT.709
Matrix coefficients : BT.709

Audio #1
ID : 2
Format : AC-3
Format/Info : Audio Coding 3
Codec ID : A_AC3
Duration : 2 h 2 min
Bit rate mode : Constant
Bit rate : 640 kb/s
Channel(s) : 6 channels
Channel positions : Front: L C R, Side: L R, LFE
Sampling rate : 48.0 kHz
Frame rate : 31.250 FPS (1536 SPF)
Bit depth : 16 bits
Compression mode : Lossy
Stream size : 562 MiB (17%)
Title : Дубляж
Language : Russian
Service kind : Complete Main
Default : Yes
Forced : No

Audio #2
ID : 3
Format : AC-3
Format/Info : Audio Coding 3
Codec ID : A_AC3
Duration : 2 h 2 min
Bit rate mode : Constant
Bit rate : 448 kb/s
Channel(s) : 6 channels
Channel positions : Front: L C R, Side: L R, LFE
Sampling rate : 48.0 kHz
Frame rate : 31.250 FPS (1536 SPF)
Bit depth : 16 bits
Compression mode : Lossy
Stream size : 394 MiB (12%)
Title : Оригинал
Language : English
Service kind : Complete Main
Default : No
Forced : No

Text #1
ID : 4
Format : UTF-8
Codec ID : S_TEXT/UTF8
Codec ID/Info : UTF-8 Plain Text
Duration : 6 min 8 s
Bit rate : 39 b/s
Count of elements : 27
Stream size : 1.76 KiB (0%)
Title : Forced
Language : Russian
Default : Yes
Forced : No

Text #2
ID : 5
Format : UTF-8
Codec ID : S_TEXT/UTF8
Codec ID/Info : UTF-8 Plain Text
Duration : 1 h 49 min
Bit rate : 88 b/s
Count of elements : 1242
Stream size : 71.3 KiB (0%)
Title : Full
Language : Russian
Default : No
Forced : No

Menu
00:00:00.000 : :(01)00:00:00:000
00:08:43.648 : :(02)00:08:43:648
00:15:21.378 : :(03)00:15:21:378
00:22:56.082 : :(04)00:22:56:082
00:29:52.457 : :(05)00:29:52:457
00:36:45.744 : :(06)00:36:45:744
00:42:34.967 : :(07)00:42:34:967
00:50:33.989 : :(08)00:50:33:989
00:56:31.012 : :(09)00:56:31:012
01:02:14.896 : :(10)01:02:14:896
01:09:27.828 : :(11)01:09:27:829
01:17:37.444 : :(12)01:17:37:444
01:25:10.104 : :(13)01:25:10:104
01:34:20.945 : :(14)01:34:20:945
01:41:33.837 : :(15)01:41:33:837
01:47:20.100 : :(16)01:47:20:100
02:02:50.154 : :(17)02:02:50:154
Загрузка...Cкриншот1 Голодные игры: Сойка-пересмешница. Часть I / The Hunger Games: Mockingjay - Part 1 (2014) BDRip 1080p [HEVC] 10 bit от M@kSIMusЗагрузка...Cкриншот2 Голодные игры: Сойка-пересмешница. Часть I / The Hunger Games: Mockingjay - Part 1 (2014) BDRip 1080p [HEVC] 10 bit от M@kSIMusЗагрузка...Cкриншот3 Голодные игры: Сойка-пересмешница. Часть I / The Hunger Games: Mockingjay - Part 1 (2014) BDRip 1080p [HEVC] 10 bit от M@kSIMusЗагрузка...Cкриншот4 Голодные игры: Сойка-пересмешница. Часть I / The Hunger Games: Mockingjay - Part 1 (2014) BDRip 1080p [HEVC] 10 bit от M@kSIMus
Торрент🧲 Магнет

Раздача обновлена!
Откатил на версию с битрейтом 2775 Kbps.

Рейтинги КП и IMDB, кнопки "Позвать в чате" и "Спасибо", а также мультитрекерная статистика доступны только зарегистрированным/авторизованным пользователям!

Файлы: 1
  • 03. Голодные игры - Сойка-пересмешница. Часть 1 (2014) BDRip 1080p [HEVC] 10 bit.mkv   3.32 ГБ
Поблагодарили: 1
brukvalub
Admin
12209003.32 ГБ

Добавление нового комментария

Добавление комментариев доступно только зарегистрированным/авторизованным пользователям.
Аватар Admin
  Admin  (Отредактировал Admin)    
VIKING писал(а):
А у предыдущей версии с битрейтом 5000 качество хуже? В чем различие с этой с меньшим битрейтом? Объясните плиз. А то по вашим комментам многим не понтяно в чем разница.
Вроде как выяснили, что 5000 для этого фильма перебор, и достаточно 2775. Но если места на диске не жалко, то можете оставить у себя версию с 5000.
Аватар не указан
  VIKING  (Отредактировал VIKING)    
А у предыдущей версии с битрейтом 5000 качество хуже? В чем различие с этой с меньшим битрейтом? Объясните плиз. А то по вашим комментам многим не понтяно в чем разница.
Аватар Admin
  Admin  (Отредактировал Admin)    
Cthulhu писал(а):
Это проблемы их и их идиотских правил, заточенных под 264. А по факту налита куча лишнего битрейта.
Сделаю откат. Я настройки не смотрел. Не видел, что crf специально занижен.
Аватар Cthulhu
  Cthulhu  (Отредактировал Cthulhu)    
Admin писал(а):
На бабочке из-за низкого битрейта отправили в архив, поэтому ему пришлось поднять. А я что-то настройки не посмотрел.
Это проблемы их и их идиотских правил, заточенных под 264. А по факту налита куча лишнего битрейта.
Аватар Admin
  Admin  
Cthulhu писал(а):
Битрейт для этого материала был достаточным. А crf=14.5 - просто раздувание
На бабочке из-за низкого битрейта отправили в архив, поэтому ему пришлось поднять. А я что-то настройки не посмотрел.
Аватар Студень
  Студень  
Cthulhu писал(а):
Битрейт для этого материала был достаточным. А crf=14.5 - просто раздувание
ну если не уметь крутить параметры детализации, то только раздувать😈
Аватар Cthulhu
  Cthulhu  
Битрейт для этого материала был достаточным. А crf=14.5 - просто раздувание
Аватар не указан
  Zulbay  (Отредактировал Zulbay)    
Макс! Я тя парву щас! Сколько можно перекодировать?! 😁😁😁👍 Я уж половину фильма посмотрел, а тут новый вариант! 👌
Аватар не указан
  Zulbay  
Cthulhu писал(а):
Может, может. Если кодировать звук вместе с видео такое иногда бывает
Хм... Я звук обычно отдельно кодирую. Так что доверюсь эксперту )
Аватар Cthulhu
  Cthulhu  (Отредактировал Cthulhu)    
Zulbay писал(а):
Только хотел тебя обругать. Как вообще может быть рассинхрон, если ты берёшь первоисточник?
Может, может. Если кодировать звук вместе с видео такое иногда бывает
Аватар не указан
  Zulbay  (Отредактировал Zulbay)    
Только хотел тебя обругать. Как вообще может быть рассинхрон, если ты берёшь первоисточник?
Аватар не указан
  Vladimir1981  
Спасибо👍, а то я уж думал, что-то не так только у меня😓