💬 Мини-чат

Giggaloнет ли у кого в планах "Давайте потанцуем" 2004
GiggaloСообщение удалено (удалил: Giggalo)
StarLordOldGamer, как дела?)
StarLordOldGamer, ура, вернулся 😄
OldGamerRezident, можете скачать этот фильм от другого релизёра, там невелика разница, а раздающие точно есть
OldGamerGiggalo, https://tsya.ru/mnemonic.html
NoMaDСообщение удалено (удалил: NoMaD)
NoMaDСообщение удалено (удалил: NoMaD)
GiggaloСообщение удалено (удалил: Giggalo)
GiggaloСообщение удалено (удалил: Giggalo)
Spartanec1308Был днём
StarLordGiggalo, наверное отрубало беднягу, целый день его нету 😅
GiggaloСообщение удалено (удалил: Giggalo)
OldGamerДоброе. Работы много, некогда на перинах валяться.
GiggaloСообщение удалено (удалил: Giggalo)
GiggaloСообщение удалено (удалил: Giggalo)
  • DEMMON75
  • Rezident
  • Shok
Отправка сообщений доступна только зарегистрированным/авторизованным пользователям.
Онлайн (за 10 мин.): 3

Чужой 4: Воскрешение / Alien: Resurrection (1997) [Special Edition] BDRip 1080p [HEVC] 10 bit от XuMuK

HEVC
10 bit
Обложка Чужой 4: Воскрешение / Alien: Resurrection (1997) [Special Edition] BDRip 1080p [HEVC] 10 bit от XuMuK Год: 1997
Страна: США
Студия: Twentieth Century Fox Film Corporation
Жанр: Ужасы, Фантастика, Боевик, Триллер
Продолжительность: 01:56:09

Режиссер: Жан-Пьер Жёне
В ролях: Сигурни Уивер, Вайнона Райдер, Доминик Пинон, Рон Перлман, Гари Дурдан, Майкл Уинкотт, Ким Флауэрс, Дэн Хедайя, Дж. Э. Фримен, Брэд Дуриф

Описание: Спустя двести лет после событий, произошедших на планете-тюрьме, группа ученых, опекаемых военным командованием, клонирует Эллен Рипли, чтобы с ее помощью заполучить детеныша инопланетного монстра. Вскоре он уже сам начинает плодиться, производя на свет новую породу — помесь кровожадного пришельца и… человека.


Видео: 1920x820, 5918 Kbps
Аудио1: AC3, 6 ch, 448 Kbps - РусскийРусский, Дублированный (Лицензия)
Аудио2: AC3, 6 ch, 448 Kbps - РусскийРусский, Многоголосый (Киномания)
Аудио3: AC3, 6 ch, 448 Kbps - РусскийРусский, Многоголосый (Позитив)
Аудио4: AC3, 6 ch, 448 Kbps - РусскийРусский, Одноголосый (Гаврилов)
Аудио5: AC3, 6 ch, 448 Kbps - РусскийРусский, Одноголосый (Гоблин)
Аудио6: AC3, 6 ch, 448 Kbps - РусскийРусский, Одноголосый (Живов)
Аудио7: AC3, 6 ch, 448 Kbps - АнглийскийАнглийский, Оригинал
Субтитры: Русские (Blu ray CEE, Киномания, Гоблин), английские

Как за пару секунд удалить ненужные аудиодорожки и субтитры (Внимание! После удаления вы не сможете поддержать раздачу)

Медиаинфо
General
Unique ID : 197565465462548331368806901627870779268 (0x94A1B97ECD9AC306B14697506E8C1784)
Complete name : I:HEVC 210 BITAliensAlien Resurrection_1997_SE_BDRip_1080p_[HEVC]_10bit.mkv
Format : Matroska
Format version : Version 4 / Version 2
File size : 7.35 GiB
Duration : 1 h 56 min
Overall bit rate : 9 058 kb/s
Encoded date : UTC 2017-11-16 16:31:06
Writing application : mkvmerge v9.9.0 ('Pick Up') 64bit
Writing library : libebml v1.3.4 + libmatroska v1.4.5
Cover : Yes
Attachments : cover.png

Video
ID : 1
Format : HEVC
Format/Info : High Efficiency Video Coding
Format profile : Main 10@L5.1@High
Codec ID : V_MPEGH/ISO/HEVC
Duration : 1 h 56 min
Bit rate : 5 918 kb/s
Width : 1 920 pixels
Height : 820 pixels
Display aspect ratio : 2.35:1
Frame rate mode : Constant
Frame rate : 23.976 (24000/1001) FPS
Color space : YUV
Chroma subsampling : 4:2:0
Bit depth : 10 bits
Bits/(Pixel*Frame) : 0.157
Stream size : 4.80 GiB (65%)
Writing library : x265 2.5+14-2718cb5dd67f:[Windows][GCC 7.1.0][64 bit] 10bit
Encoding settings : cpuid=1173503 / frame-threads=4 / numa-pools=16 / wpp / no-pmode / no-pme / no-psnr / no-ssim / log-level=2 / input-csp=1 / input-res=1920x820 / interlace=0 / total-frames=0 / level-idc=51 / high-tier=1 / uhd-bd=0 / ref=5 / no-allow-non-conformance / no-repeat-headers / annexb / no-aud / no-hrd / info / hash=0 / no-temporal-layers / open-gop / min-keyint=23 / keyint=240 / bframes=8 / b-adapt=2 / no-b-pyramid / bframe-bias=0 / rc-lookahead=40 / lookahead-slices=4 / scenecut=40 / no-intra-refresh / ctu=64 / min-cu-size=8 / no-rect / no-amp / max-tu-size=32 / tu-inter-depth=2 / tu-intra-depth=4 / limit-tu=1 / rdoq-level=0 / dynamic-rd=0.00 / no-ssim-rd / signhide / no-tskip / nr-intra=0 / nr-inter=0 / no-constrained-intra / no-strong-intra-smoothing / max-merge=3 / limit-refs=3 / no-limit-modes / me=3 / subme=7 / merange=57 / temporal-mvp / weightp / weightb / no-analyze-src-pics / deblock=-3:-3 / no-sao / no-sao-non-deblock / rd=4 / no-early-skip / no-rskip / no-fast-intra / no-tskip-fast / no-cu-lossless / no-b-intra / no-splitrd-skip / rdpenalty=0 / psy-rd=2.00 / psy-rdoq=0.00 / no-rd-refine / analysis-reuse-mode=0 / no-lossless / cbqpoffs=0 / crqpoffs=0 / rc=crf / crf=18.0 / qcomp=0.60 / qpstep=4 / stats-write=0 / stats-read=0 / vbv-maxrate=160000 / vbv-bufsize=160000 / vbv-init=0.9 / crf-max=0.0 / crf-min=0.0 / ipratio=1.20 / pbratio=1.10 / aq-mode=1 / aq-strength=0.30 / cutree / zone-count=1 / zones: / start-frame=158003 / end-frame=167081 / qp=35 / no-strict-cbr / qg-size=32 / no-rc-grain / qpmax=51 / qpmin=0 / no-const-vbv / sar=0 / overscan=0 / videoformat=5 / range=0 / colorprim=2 / transfer=2 / colormatrix=1 / chromaloc=0 / display-window=0 / max-cll=0,0 / min-luma=0 / max-luma=1023 / log2-max-poc-lsb=8 / vui-timing-info / vui-hrd-info / slices=1 / opt-qp-pps / opt-ref-list-length-pps / no-multi-pass-opt-rps / scenecut-bias=0.05 / no-opt-cu-delta-qp / no-aq-motion / no-hdr / no-hdr-opt / no-dhdr10-opt / analysis-reuse-level=5 / scale-factor=0 / refine-intra=0 / refine-inter=0 / refine-mv=0 / no-limit-sao / ctu-info=0
Default : Yes
Forced : Yes
Color range : Limited
Matrix coefficients : BT.709

Audio #1
ID : 2
Format : AC-3
Format/Info : Audio Coding 3
Format settings, Endianness : Big
Codec ID : A_AC3
Duration : 1 h 56 min
Bit rate mode : Constant
Bit rate : 448 kb/s
Channel(s) : 6 channels
Channel positions : Front: L C R, Side: L R, LFE
Sampling rate : 48.0 kHz
Frame rate : 31.250 FPS (1536 SPF)
Bit depth : 16 bits
Compression mode : Lossy
Stream size : 372 MiB (5%)
Title : CEE Dubl
Language : Russian
Service kind : Complete Main
Default : Yes
Forced : No

Audio #2
ID : 3
Format : AC-3
Format/Info : Audio Coding 3
Format settings, Endianness : Big
Codec ID : A_AC3
Duration : 1 h 56 min
Bit rate mode : Constant
Bit rate : 448 kb/s
Channel(s) : 6 channels
Channel positions : Front: L C R, Side: L R, LFE
Sampling rate : 48.0 kHz
Frame rate : 31.250 FPS (1536 SPF)
Bit depth : 16 bits
Compression mode : Lossy
Stream size : 372 MiB (5%)
Title : MVO Kinomania
Language : Russian
Service kind : Complete Main
Default : No
Forced : No

Audio #3
ID : 4
Format : AC-3
Format/Info : Audio Coding 3
Format settings, Endianness : Big
Codec ID : A_AC3
Duration : 1 h 56 min
Bit rate mode : Constant
Bit rate : 448 kb/s
Channel(s) : 6 channels
Channel positions : Front: L C R, Side: L R, LFE
Sampling rate : 48.0 kHz
Frame rate : 31.250 FPS (1536 SPF)
Bit depth : 16 bits
Compression mode : Lossy
Stream size : 372 MiB (5%)
Title : MVO Pozitiv
Language : Russian
Service kind : Complete Main
Default : No
Forced : No

Audio #4
ID : 5
Format : AC-3
Format/Info : Audio Coding 3
Format settings, Endianness : Big
Codec ID : A_AC3
Duration : 1 h 56 min
Bit rate mode : Constant
Bit rate : 448 kb/s
Channel(s) : 6 channels
Channel positions : Front: L C R, Side: L R, LFE
Sampling rate : 48.0 kHz
Frame rate : 31.250 FPS (1536 SPF)
Bit depth : 16 bits
Compression mode : Lossy
Stream size : 372 MiB (5%)
Title : AVO Gavrilov
Language : Russian
Service kind : Complete Main
Default : No
Forced : No

Audio #5
ID : 6
Format : AC-3
Format/Info : Audio Coding 3
Format settings, Endianness : Big
Codec ID : A_AC3
Duration : 1 h 56 min
Bit rate mode : Constant
Bit rate : 448 kb/s
Channel(s) : 6 channels
Channel positions : Front: L C R, Side: L R, LFE
Sampling rate : 48.0 kHz
Frame rate : 31.250 FPS (1536 SPF)
Bit depth : 16 bits
Compression mode : Lossy
Stream size : 372 MiB (5%)
Title : AVO Goblin
Language : Russian
Service kind : Complete Main
Default : No
Forced : No

Audio #6
ID : 7
Format : AC-3
Format/Info : Audio Coding 3
Format settings, Endianness : Big
Codec ID : A_AC3
Duration : 1 h 56 min
Bit rate mode : Constant
Bit rate : 448 kb/s
Channel(s) : 6 channels
Channel positions : Front: L C R, Side: L R, LFE
Sampling rate : 48.0 kHz
Frame rate : 31.250 FPS (1536 SPF)
Bit depth : 16 bits
Compression mode : Lossy
Stream size : 372 MiB (5%)
Title : AVO Jivov
Language : Russian
Service kind : Complete Main
Default : No
Forced : No

Audio #7
ID : 8
Format : AC-3
Format/Info : Audio Coding 3
Format settings, Endianness : Big
Codec ID : A_AC3
Duration : 1 h 56 min
Bit rate mode : Constant
Bit rate : 448 kb/s
Channel(s) : 6 channels
Channel positions : Front: L C R, Side: L R, LFE
Sampling rate : 48.0 kHz
Frame rate : 31.250 FPS (1536 SPF)
Bit depth : 16 bits
Compression mode : Lossy
Stream size : 372 MiB (5%)
Title : Original ENG
Language : English
Service kind : Complete Main
Default : No
Forced : No

Text #1
ID : 9
Format : UTF-8
Codec ID : S_TEXT/UTF8
Codec ID/Info : UTF-8 Plain Text
Duration : 1 h 47 min
Bit rate : 51 b/s
Count of elements : 864
Stream size : 40.6 KiB (0%)
Title : SUB Rus Blu-ray CEE
Language : Russian
Default : Yes
Forced : No

Text #2
ID : 10
Format : UTF-8
Codec ID : S_TEXT/UTF8
Codec ID/Info : UTF-8 Plain Text
Duration : 1 h 48 min
Bit rate : 53 b/s
Count of elements : 851
Stream size : 42.9 KiB (0%)
Title : SUB Rus Kinomania
Language : Russian
Default : No
Forced : No

Text #3
ID : 11
Format : UTF-8
Codec ID : S_TEXT/UTF8
Codec ID/Info : UTF-8 Plain Text
Duration : 1 h 39 min
Bit rate : 7 b/s
Count of elements : 104
Stream size : 5.09 KiB (0%)
Title : SUB Rus Goblin
Language : Russian
Default : No
Forced : No

Text #4
ID : 12
Format : UTF-8
Codec ID : S_TEXT/UTF8
Codec ID/Info : UTF-8 Plain Text
Duration : 1 h 55 min
Bit rate : 39 b/s
Count of elements : 1158
Stream size : 33.5 KiB (0%)
Title : SUB Eng
Language : English
Default : No
Forced : No

Menu
00:00:00.000 : :00:00:00.000
00:03:27.332 : :00:03:27.332
00:04:26.308 : :00:04:26.308
00:06:30.140 : :00:06:30.140
00:08:49.279 : :00:08:49.279
00:12:06.225 : :00:12:06.225
00:15:03.528 : :00:15:03.528
00:19:25.539 : :00:19:25.539
00:21:37.838 : :00:21:37.838
00:24:12.868 : :00:24:12.868
00:26:19.995 : :00:26:19.995
00:30:08.765 : :00:30:08.765
00:32:19.563 : :00:32:19.563
00:37:16.693 : :00:37:16.693
00:39:26.739 : :00:39:26.739
00:42:36.679 : :00:42:36.679
00:46:30.663 : :00:46:30.663
00:49:20.791 : :00:49:20.791
00:53:35.379 : :00:53:35.379
00:57:04.963 : :00:57:04.963
01:03:01.653 : :01:03:01.653
01:07:40.431 : :01:07:40.431
01:19:37.147 : :01:19:37.147
01:22:07.297 : :01:22:07.297
01:28:21.421 : :01:28:21.421
01:31:45.917 : :01:31:45.917
01:34:15.525 : :01:34:15.525
01:38:58.391 : :01:38:58.391
01:40:45.539 : :01:40:45.539
01:43:49.849 : :01:43:49.849
01:47:52.299 : :01:47:52.299
01:49:51.418 : :01:49:51.418
Загрузка...Cкриншот1 Чужой 4: Воскрешение / Alien: Resurrection (1997) [Special Edition] BDRip 1080p [HEVC] 10 bit от XuMuKЗагрузка...Cкриншот2 Чужой 4: Воскрешение / Alien: Resurrection (1997) [Special Edition] BDRip 1080p [HEVC] 10 bit от XuMuKЗагрузка...Cкриншот3 Чужой 4: Воскрешение / Alien: Resurrection (1997) [Special Edition] BDRip 1080p [HEVC] 10 bit от XuMuKЗагрузка...Cкриншот4 Чужой 4: Воскрешение / Alien: Resurrection (1997) [Special Edition] BDRip 1080p [HEVC] 10 bit от XuMuK
Торрент🧲 Магнет

Рейтинги КП и IMDB, кнопки "Позвать в чате" и "Спасибо", а также мультитрекерная статистика доступны только зарегистрированным/авторизованным пользователям!

Файлы: 1
  • Alien Resurrection_1997_SE_BDRip_1080p_[HEVC]_10bit.mkv   7.35 ГБ
Поблагодарили: 13
Alexeyall, Danlivy, DonKihot, Gampeldor, gurvinok, icesnoop, Korbis, MIGRANT, mr_nikitin, sakurarec, SoulBoy, stormbringer, xlxxl
Admin
0545007.35 ГБ

Добавление нового комментария

Добавление комментариев доступно только зарегистрированным/авторизованным пользователям.