💬 Мини-чат

BrooklynOldGamer, Ок, спасибо, качаю.
OldGamerBrooklyn, они все на раздаче пока что
BrooklynOldGamer, Пораздавайте, пожалуйста, все сезоны сериала "Гримм" ближайшие 3 дня, очень хочу их забрать. Качество отличное. Заранее Благодарен.
StarLordСообщение удалено (удалил: StarLord)
OldGamerвыводить
mafo2Admin, можно вывести, наглядно будет
StarLordAdmin, +
AdminНадпись HDR выводить на обложку?
OldGamerGiggalo, но лучше всего вообще не затрагивайте этот ключ, по умолчанию будет установлено оптимальное значение
OldGamerGiggalo, но если уж очень хочется то пишите --frame-threads 3
OldGamerGiggalo, а зачем его менять?) нужное значение устанавливается автоматически
GiggaloДобрый вечер всем! OldGamer Покажи пожалуйста почему когда пишу в командной строке frame-threads=3 он не меняется. Какой там стоит 13 он его и держит, а ругие установки спокойно меняет?
AdminStarLord, спасибо. Пока сойдет.
StarLordAdmin, ага, вижу
StarLordAdmin, а как должно брать?
AdminStarLord, ты шаришь?
AdminStarLord, у меня сейчас такая, но с точками беда. Доработать бы (https?://([-\w\.]+)+(:\d+)?(/([-\w/_:%]*(\.\w+)*(\?\S+)?)?)?)
AdminStarLord, скрины в bb некорректно берет
StarLordwww, ftp(s), http(s), #, :, &
StarLordAdmin, все мои кейсы покрыла
  • OldGamer
  • InSpector
  • moonson
  • NoMaD
  • pmihail99
  • sharkey71
Отправка сообщений доступна только зарегистрированным/авторизованным пользователям.
Онлайн (за 10 мин.): 6

Война миров Z / World War Z (2013) [Unrated Cut] BDRip 1080p [HEVC] 8 bit от XuMuK

HEVC
8 bit
Обложка Война миров Z / World War Z (2013) [Unrated Cut] BDRip 1080p [HEVC] 8 bit от XuMuK Год: 2013
Страна: США
Жанр: Ужасы, Фантастика, Боевик, Триллер
Продолжительность: 02:03:04

Режиссер: Марк Форстер
В ролях: Брэд Питт, Мэттью Фокс, Мирель Инос, Майло Вентимилья, Джеймс Бэдж Дэйл, Дэвид Морс, Люси Расселл, Дэвид Эндрюс

Описание: Сотрудник ООН Джерри Лэйн наперегонки со временем пытается остановить заражение, способное полностью истребить человечество.


Видео: 1920x800, 3357 Kbps
Аудио1: AAC, 6 ch, 448 Kbps - РусскийРусский, Дублированный (Лицензия) + вставки альтернативного дубляжа
Аудио2: AAC, 6 ch, 437 Kbps - РусскийРусский, Одноголосый (Гаврилов)
Аудио3: AAC, 6 ch, 437 Kbps - АнглийскийАнглийский, Оригинал
Субтитры: Русские (форсированные, полные), английские (форсированные, полные)

Как за пару секунд удалить ненужные аудиодорожки и субтитры (Внимание! После удаления вы не сможете поддержать раздачу)

Медиаинфо
Общее
Уникальный идентификатор : 215272425782748483864615285374302547177 (0xA1F3F60AC0EE143AA3AE34C5102BECE9)
Полное имя : I:HEVC 2World War Z_2013_Unrated Cut_BDRip_1080p_[HEVC].mkv
Формат : Matroska
Версия формата : Version 4 / Version 2
Размер файла : 4,03 Гбайт
Продолжительность : 2 ч. 3 м.
Общий поток : 4683 Кбит/сек
Дата кодирования : UTC 2017-08-10 16:20:49
Программа кодирования : mkvmerge v9.7.1 ('Pandemonium') 64bit
Библиотека кодирования : libebml v1.3.4 + libmatroska v1.4.5
Обложка : Yes
Attachments : cover.png

Видео
Идентификатор : 1
Формат : HEVC
Формат/Информация : High Efficiency Video Coding
Профиль формата : Main@L4.1@High
Идентификатор кодека : V_MPEGH/ISO/HEVC
Продолжительность : 2 ч. 3 м.
Битрейт : 3357 Кбит/сек
Ширина : 1920 пикселей
Высота : 800 пикселей
Соотношение сторон : 2,40:1
Режим частоты кадров : Постоянный
Частота кадров : 23,976 (24000/1001) кадра/сек
Цветовое пространство : YUV
Субдискретизация насыщенности : 4:2:0
Битовая глубина : 8 бит
Бит/(Пиксели*Кадры) : 0.091
Размер потока : 2,89 Гбайт (72%)
Библиотека кодирования : x265 2.4+6-fd01abfc7898:[Windows][GCC 6.3.0][64 bit] 8bit+10bit+12bit
Настройки программы : cpuid=1173503 / frame-threads=3 / numa-pools=8 / wpp / no-pmode / no-pme / no-psnr / no-ssim / log-level=2 / input-csp=1 / input-res=1920x800 / interlace=0 / total-frames=0 / level-idc=41 / high-tier=1 / uhd-bd=0 / ref=4 / no-allow-non-conformance / no-repeat-headers / annexb / no-aud / no-hrd / info / hash=0 / no-temporal-layers / open-gop / min-keyint=23 / keyint=240 / bframes=10 / b-adapt=2 / b-pyramid / bframe-bias=0 / rc-lookahead=25 / lookahead-slices=4 / scenecut=40 / no-intra-refresh / ctu=64 / min-cu-size=8 / rect / no-amp / max-tu-size=32 / tu-inter-depth=3 / tu-intra-depth=3 / limit-tu=0 / rdoq-level=2 / dynamic-rd=0.00 / no-ssim-rd / signhide / no-tskip / nr-intra=0 / nr-inter=0 / no-constrained-intra / strong-intra-smoothing / max-merge=3 / limit-refs=3 / limit-modes / me=3 / subme=3 / merange=32 / temporal-mvp / weightp / weightb / no-analyze-src-pics / deblock=-3:-3 / no-sao / no-sao-non-deblock / rd=4 / no-early-skip / rskip / no-fast-intra / no-tskip-fast / no-cu-lossless / no-b-intra / rdpenalty=0 / psy-rd=2.00 / psy-rdoq=2.00 / no-rd-refine / analysis-mode=0 / no-lossless / cbqpoffs=0 / crqpoffs=0 / rc=crf / crf=18.0 / qcomp=0.60 / qpstep=4 / stats-write=0 / stats-read=0 / vbv-maxrate=50000 / vbv-bufsize=50000 / vbv-init=0.9 / crf-max=0.0 / crf-min=0.0 / ipratio=1.40 / pbratio=1.30 / aq-mode=3 / aq-strength=0.90 / cutree / zone-count=1 / zones: / start-frame=166637 / end-frame=177031 / qp=35 / no-strict-cbr / qg-size=32 / no-rc-grain / qpmax=69 / qpmin=0 / sar=0 / overscan=0 / videoformat=5 / range=0 / colorprim=2 / transfer=2 / colormatrix=1 / chromaloc=0 / display-window=0 / max-cll=0,0 / min-luma=0 / max-luma=255 / log2-max-poc-lsb=8 / vui-timing-info / vui-hrd-info / slices=1 / opt-qp-pps / opt-ref-list-length-pps / no-multi-pass-opt-rps / scenecut-bias=0.05 / no-opt-cu-delta-qp / aq-motion / no-hdr / no-hdr-opt / no-dhdr10-opt / refine-level=5 / no-limit-sao
Default : Да
Forced : Да
Цветовой диапазон : Limited
Коэффициенты матрицы : BT.709

Аудио #1
Идентификатор : 2
Формат : AAC
Формат/Информация : Advanced Audio Codec
Профиль формата : LC
Идентификатор кодека : A_AAC
Продолжительность : 2 ч. 3 м.
Битрейт : 448 Кбит/сек
Каналы : 6 каналов
Расположение каналов : Front: L C R, Side: L R, LFE
Частота : 48,0 КГц
Частота кадров : 46,875 кадров/сек (1024 SPF)
Метод сжатия : С потерями
Размер потока : 394 Мбайт (10%)
Заголовок : DUB-Blu-ray (со вставками альтернативного дубляжа)
Язык : Russian
Default : Да
Forced : Нет

Аудио #2
Идентификатор : 3
Формат : AAC
Формат/Информация : Advanced Audio Codec
Профиль формата : LC
Идентификатор кодека : A_AAC
Продолжительность : 2 ч. 3 м.
Битрейт : 437 Кбит/сек
Каналы : 6 каналов
Расположение каналов : Front: L C R, Side: L R, LFE
Частота : 48,0 КГц
Частота кадров : 46,875 кадров/сек (1024 SPF)
Метод сжатия : С потерями
Задержка видео : 9 мс.
Размер потока : 385 Мбайт (9%)
Заголовок : AVO - Гаврилов
Язык : Russian
Default : Нет
Forced : Нет

Аудио #3
Идентификатор : 4
Формат : AAC
Формат/Информация : Advanced Audio Codec
Профиль формата : LC
Идентификатор кодека : A_AAC
Продолжительность : 2 ч. 3 м.
Битрейт : 437 Кбит/сек
Каналы : 6 каналов
Расположение каналов : Front: L C R, Side: L R, LFE
Частота : 48,0 КГц
Частота кадров : 46,875 кадров/сек (1024 SPF)
Метод сжатия : С потерями
Задержка видео : 9 мс.
Размер потока : 385 Мбайт (9%)
Заголовок : Original
Язык : English
Default : Нет
Forced : Нет

Текст #1
Идентификатор : 5
Формат : UTF-8
Идентификатор кодека : S_TEXT/UTF8
Идентификатор кодека/Информация : UTF-8 Plain Text
Продолжительность : 1 ч. 47 м.
Битрейт : 1 бит/сек
ElementCount : 20
Размер потока : 1,17 Кбайт (0%)
Заголовок : Sub-forced
Язык : Russian
Default : Да
Forced : Нет

Текст #2
Идентификатор : 6
Формат : UTF-8
Идентификатор кодека : S_TEXT/UTF8
Идентификатор кодека/Информация : UTF-8 Plain Text
Продолжительность : 1 ч. 55 м.
Битрейт : 71 бит/сек
ElementCount : 1253
Размер потока : 60,6 Кбайт (0%)
Заголовок : Sub- Notabenoid
Язык : Russian
Default : Нет
Forced : Нет

Текст #3
Идентификатор : 7
Формат : UTF-8
Идентификатор кодека : S_TEXT/UTF8
Идентификатор кодека/Информация : UTF-8 Plain Text
Продолжительность : 52 м. 37 с.
Битрейт : 0 бит/сек
ElementCount : 9
Размер потока : 260 байт (0%)
Заголовок : Sub-forced
Язык : English
Default : Нет
Forced : Нет

Текст #4
Идентификатор : 8
Формат : UTF-8
Идентификатор кодека : S_TEXT/UTF8
Идентификатор кодека/Информация : UTF-8 Plain Text
Продолжительность : 1 ч. 54 м.
Битрейт : 42 бит/сек
ElementCount : 1257
Размер потока : 35,9 Кбайт (0%)
Заголовок : Sub-full
Язык : English
Default : Нет
Forced : Нет

Меню
00:00:00.000 : :Chapter 01
00:05:05.179 : :Chapter 02
00:13:53.999 : :Chapter 03
00:22:43.195 : :Chapter 04
00:29:46.034 : :Chapter 05
00:35:21.494 : :Chapter 06
00:42:23.457 : :Chapter 07
00:52:37.946 : :Chapter 08
00:58:53.821 : :Chapter 09
01:07:18.868 : :Chapter 10
01:15:11.757 : :Chapter 11
01:24:02.037 : :Chapter 12
01:29:08.801 : :Chapter 13
01:34:50.518 : :Chapter 14
01:43:45.469 : :Chapter 15
01:52:17.981 : :Chapter 16
01:55:51.653 : :Chapter 17
Загрузка...Cкриншот1 Война миров Z / World War Z (2013) [Unrated Cut] BDRip 1080p [HEVC] 8 bit от XuMuKЗагрузка...Cкриншот2 Война миров Z / World War Z (2013) [Unrated Cut] BDRip 1080p [HEVC] 8 bit от XuMuKЗагрузка...Cкриншот3 Война миров Z / World War Z (2013) [Unrated Cut] BDRip 1080p [HEVC] 8 bit от XuMuKЗагрузка...Cкриншот4 Война миров Z / World War Z (2013) [Unrated Cut] BDRip 1080p [HEVC] 8 bit от XuMuK
Торрент🧲 Магнет

Рейтинги КП и IMDB, кнопки "Позвать в чате" и "Спасибо", а также мультитрекерная статистика сидов и пиров доступны только зарегистрированным/авторизованным пользователям!

Файлы: 1
  • World War Z_2013_Unrated Cut_BDRip_1080p_[HEVC].mkv   4.03 ГБ
Поблагодарили: 8
adybas, davidoff_k4, EAGLEDOC, GIS88, inet7052, m13x, martin2405, misharev1970
Admin
0253004.03 ГБ

Добавление нового комментария

Добавление комментариев доступно только зарегистрированным/авторизованным пользователям.