💬 Мини-чат

KEYSРаздайте, пожалуйста, Тело Дженнифер / Jennifer's Body (2009) [Unrated Cut] BDRip 1080p [HEVC] 10 bit от XuMuK
KEYSРаздайте, пожалуйста, Зажигание / Combustión (2013) BDRip 1080p [HEVC] 10 bit от HANNIBAL
ADVOKAT69michael90, 👍без проблем!пожалуйста!
michael90ADVOKAT69, большое спасибо😎
ADVOKAT69michael90, раздаю
michael90Раздайте, пожалуйста, Джентльмены удачи (1971) BDRip 1080p [HEVC] 10 bit от ADVOKAT69
StarLordOldGamer, немного уменьшил список :)
OldGamerСкоро вся первая страница будет состоять из публикаций "Скоро" 😂
Adminzzzlayasss, сделайте скриншоты вкладок с хэш-суммой и трекерами и мне в приват или в ЛС
Adminzzzlayasss, в Вашем профиле я вообще не вижу, чтобы Вы это качали, так что мы даже не уверены, что Вы скачивали торрент-файл именно у нас.
OldGamerох уж в 2022 то году думать, что торренты скачиваются с сайта...
zzzlayasssСообщение удалено (удалил: zzzlayasss)
zzzlayasssOldGamer, у меня потери - 0, что тут разбирать?
OldGamerс моей стороны трассировка до пользователей саркор-телеком проходит успешно, так что разберитесь с принципом работы торрентов и ищите решение на своей стороне
OldGamerzzzlayasss, дело хозяйское
zzzlayasssOldGamer, Ни с железом, ни со скоростью интернета у меня нет проблем. Сейчас поставил на закачку релиз от ктулху, он в два раза меньше, но уже половина скачано, если докачаю быстрее 16-ти ваших мегабайт, то буду избавляться от вашего 11,66 гигового вашего, всё настроение испоганено такой долгой закачкой.
OldGamerzzzlayasss, у меня нет никаких проблем
zzzlayasssЛюди добрые, обьясните мне, я реально не понимаю, вчера поставил на закачку два фильма, РЭД и РЭД-2, второй фильм скачался буквально за каких-то пол часа, но вот с фильмом РЭД у меня какие-то немыслимые качели, или у релизера проблемы с файлом и он мне не может раздать последние 16 мегабайт, или он просто издевается, объясните мне пожалуйста, что тут реально происходит.
zzzlayasssСообщение удалено (удалил: zzzlayasss)
zzzlayasssОсталось докачать 16 мегабайт, но я уже почти сутки сижу и жду.
  • OldGamer
  • 77carlsson77
  • AlexTwitt
  • torrentzulu
Отправка сообщений доступна только зарегистрированным/авторизованным пользователям.
Онлайн (за 10 мин.): 4

Замёрзшие / Frozen (2010) BDRip 1080p [HEVC] 10 bit от M@kSIMus

HEVC
10 bit
Обложка Замёрзшие / Frozen (2010) BDRip 1080p [HEVC] 10 bit от M@kSIMus Год: 2010
Страна: США
Студия: Anchor Bay Films
Жанр: Ужасы, Триллер, Драма
Продолжительность: 01:33:19

Режиссер: Адам Грин
В ролях: Эмма Белл, Шон Эшмор, Кевин Зегерс, Эд Экерман, Райли Вандербилт, Кэйн Ходдер, Адам Джонсон, Крис Йорк, Педер Мелхёз, Уилл Бэррэтт

Описание: Не всматривайтесь в бездну, иначе бездна начнет всматриваться в вас… Три молодых человека — сноубордисты и лыжник даже и не подозревали, как это может быть в реальности, и какой чудовищный кошмар ожидает их. Они застревают на подъемнике, и веселый вечер в заснеженных зимних горах превращается в ад. Жуткий холод и обжигающий ветер несут гибель несчастным, оказавшимся в ловушке на огромной высоте. Время работает против них — никто не придет на помощь, ведь горнолыжный курорт закрыт на несколько дней. Остается одно — спасаться самим. Но чтобы спастись — нужно победить ужас этой ночи! Весь ужас…


Видео: 1920x800, 6456 Kbps
Аудио1: AC3, 6 ch, 384 Kbps - РусскийРусский, Дублированный (Лицензия)
Аудио2: AC3, 6 ch, 448 Kbps - АнглийскийАнглийский, Оригинал
Субтитры: Русские

Как за пару секунд удалить ненужные аудиодорожки и субтитры (Внимание! После удаления вы не сможете поддержать раздачу)

Медиаинфо
Общее
Уникальный идентификатор : 309614948895223476257125075903171890022 (0xE8EDAB8DAFE55073597019D35E698B66)
Полное имя : E:\Фильмы\Замёрзшие (2010) BDRip 1080p [HEVC] 10 bit.mkv
Формат : Matroska
Версия формата : Version 4 / Version 2
Размер файла : 4,75 Гбайт
Продолжительность : 1 ч. 33 м.
Общий поток : 7290 Кбит/сек
Название фильма : Rip_by_M@kSIMus
Дата кодирования : UTC 2018-11-25 06:19:07
Программа кодирования : mkvmerge v28.0.0 ('Voice In My Head') 64-bit
Библиотека кодирования : libebml v1.3.6 + libmatroska v1.4.9
Обложка : Yes
Attachments : cover.jpg

Видео
Идентификатор : 1
Формат : HEVC
Формат/Информация : High Efficiency Video Coding
Профиль формата : Main 10@L4.1@High
Идентификатор кодека : V_MPEGH/ISO/HEVC
Продолжительность : 1 ч. 33 м.
Битрейт : 6456 Кбит/сек
Ширина : 1920 пикселей
Высота : 800 пикселей
Соотношение сторон : 2,40:1
Режим частоты кадров : Постоянный
Частота кадров : 23,976 (24000/1001) кадра/сек
Цветовое пространство : YUV
Субдискретизация насыщенности : 4:2:0
Битовая глубина : 10 бит
Бит/(Пиксели*Кадры) : 0.175
Размер потока : 4,21 Гбайт (89%)
Библиотека кодирования : x265 2.8+74-fd517ae68f93:[Windows][GCC 7.3.0][64 bit] 10bit
Настройки программы : cpuid=1049583 / frame-threads=5 / numa-pools=4 / wpp / no-pmode / no-pme / no-psnr / no-ssim / log-level=3 / input-csp=1 / input-res=1920x800 / interlace=0 / total-frames=0 / level-idc=41 / high-tier=1 / uhd-bd=0 / ref=4 / allow-non-conformance / no-repeat-headers / annexb / no-aud / no-hrd / info / hash=0 / no-temporal-layers / open-gop / min-keyint=24 / keyint=240 / gop-lookahead=0 / bframes=8 / b-adapt=2 / b-pyramid / bframe-bias=0 / rc-lookahead=40 / lookahead-slices=5 / scenecut=40 / radl=0 / no-intra-refresh / ctu=64 / min-cu-size=8 / no-rect / no-amp / max-tu-size=32 / tu-inter-depth=1 / tu-intra-depth=1 / limit-tu=0 / rdoq-level=0 / dynamic-rd=0.00 / no-ssim-rd / signhide / no-tskip / nr-intra=0 / nr-inter=0 / no-constrained-intra / strong-intra-smoothing / max-merge=2 / limit-refs=3 / no-limit-modes / me=3 / subme=7 / merange=57 / temporal-mvp / weightp / no-weightb / no-analyze-src-pics / deblock=-3:-3 / no-sao / no-sao-non-deblock / rd=3 / no-early-skip / rskip / no-fast-intra / no-tskip-fast / no-cu-lossless / no-b-intra / no-splitrd-skip / rdpenalty=0 / psy-rd=2.00 / psy-rdoq=0.00 / no-rd-refine / no-lossless / cbqpoffs=0 / crqpoffs=0 / rc=crf / crf=20.0 / qcomp=0.60 / qpstep=4 / stats-write=0 / stats-read=0 / vbv-maxrate=50000 / vbv-bufsize=50000 / vbv-init=0.9 / crf-max=0.0 / crf-min=0.0 / ipratio=1.40 / pbratio=1.30 / aq-mode=1 / aq-strength=1.00 / cutree / zone-count=0 / no-strict-cbr / qg-size=32 / no-rc-grain / qpmax=69 / qpmin=0 / no-const-vbv / sar=1 / overscan=0 / videoformat=5 / range=0 / colorprim=1 / transfer=1 / colormatrix=1 / chromaloc=0 / display-window=0 / max-cll=0,0 / min-luma=0 / max-luma=1023 / log2-max-poc-lsb=8 / vui-timing-info / vui-hrd-info / slices=1 / no-opt-qp-pps / no-opt-ref-list-length-pps / no-multi-pass-opt-rps / scenecut-bias=0.05 / no-opt-cu-delta-qp / no-aq-motion / no-hdr / no-hdr-opt / no-dhdr10-opt / no-idr-recovery-sei / analysis-reuse-level=5 / scale-factor=0 / refine-intra=0 / refine-inter=0 / refine-mv=0 / no-limit-sao / ctu-info=0 / no-lowpass-dct / refine-mv-type=0 / copy-pic=1 / max-ausize-factor=1.0 / no-dynamic-refine / no-single-sei
Язык : English
Default : Да
Forced : Нет
Цветовой диапазон : Limited
Основные цвета : BT.709
Характеристики трансфера : BT.709
Коэффициенты матрицы : BT.709

Аудио #1
Идентификатор : 2
Формат : AC-3
Формат/Информация : Audio Coding 3
Идентификатор кодека : A_AC3
Продолжительность : 1 ч. 33 м.
Вид битрейта : Постоянный
Битрейт : 384 Кбит/сек
Каналы : 6 каналов
Расположение каналов : Front: L C R, Side: L R, LFE
Частота : 48,0 КГц
Частота кадров : 31,250 кадров/сек (1536 SPF)
Битовая глубина : 16 бит
Метод сжатия : С потерями
Размер потока : 256 Мбайт (5%)
Заголовок : Дубляж
Язык : Russian
ServiceKind/String : Complete Main
Default : Да
Forced : Нет

Аудио #2
Идентификатор : 3
Формат : AC-3
Формат/Информация : Audio Coding 3
Идентификатор кодека : A_AC3
Продолжительность : 1 ч. 33 м.
Вид битрейта : Постоянный
Битрейт : 448 Кбит/сек
Каналы : 6 каналов
Расположение каналов : Front: L C R, Side: L R, LFE
Частота : 48,0 КГц
Частота кадров : 31,250 кадров/сек (1536 SPF)
Битовая глубина : 16 бит
Метод сжатия : С потерями
Размер потока : 299 Мбайт (6%)
Заголовок : Оригинал
Язык : English
ServiceKind/String : Complete Main
Default : Нет
Forced : Нет

Текст
Идентификатор : 4
Формат : UTF-8
Идентификатор кодека : S_TEXT/UTF8
Идентификатор кодека/Информация : UTF-8 Plain Text
Продолжительность : 1 ч. 26 м.
Битрейт : 82 бит/сек
ElementCount : 823
Размер потока : 52,7 Кбайт (0%)
Заголовок : Full
Язык : Russian
Default : Да
Forced : Нет

Меню
00:00:00.000 : :00:00:00.000
00:12:13.899 : :00:12:13.899
00:19:57.112 : :00:19:57.112
00:31:07.740 : :00:31:07.740
00:38:15.376 : :00:38:15.376
00:51:03.268 : :00:51:03.268
00:54:51.663 : :00:54:51.663
00:58:43.978 : :00:58:43.978
01:05:30.593 : :01:05:30.593
01:18:49.975 : :01:18:49.975
01:25:42.846 : :01:25:42.846
01:28:31.848 : :01:28:31.848
Загрузка...Cкриншот1 Замёрзшие / Frozen (2010) BDRip 1080p [HEVC] 10 bit от M@kSIMusЗагрузка...Cкриншот2 Замёрзшие / Frozen (2010) BDRip 1080p [HEVC] 10 bit от M@kSIMusЗагрузка...Cкриншот3 Замёрзшие / Frozen (2010) BDRip 1080p [HEVC] 10 bit от M@kSIMusЗагрузка...Cкриншот4 Замёрзшие / Frozen (2010) BDRip 1080p [HEVC] 10 bit от M@kSIMus
Сэмпл Торрент🧲 Магнет

Рейтинги КП и IMDB, кнопки "Позвать в чате" и "Спасибо", а также мультитрекерная статистика доступны только зарегистрированным/авторизованным пользователям!

Файлы: 1
  • Замёрзшие (2010) BDRip 1080p [HEVC] 10 bit.mkv   4.75 ГБ
Поблагодарили: 3
donadar, inet7052, SwX8
Admin
2434004.75 ГБ

Добавление нового комментария

Добавление комментариев доступно только зарегистрированным/авторизованным пользователям.
Аватар не указан
  Beebo  
SwX8 писал(а):
это не ужасы,а чёрная комедия
ну местами было орно, но не думаю что так и было задумано.
Аватар SwX8
  SwX8  
это не ужасы,а чёрная комедия