💬 Мини-чат

OldGamerвыводить
mafo2Admin, можно вывести, наглядно будет
StarLordAdmin, +
AdminНадпись HDR выводить на обложку?
OldGamerGiggalo, но лучше всего вообще не затрагивайте этот ключ, по умолчанию будет установлено оптимальное значение
OldGamerGiggalo, но если уж очень хочется то пишите --frame-threads 3
OldGamerGiggalo, а зачем его менять?) нужное значение устанавливается автоматически
GiggaloДобрый вечер всем! OldGamer Покажи пожалуйста почему когда пишу в командной строке frame-threads=3 он не меняется. Какой там стоит 13 он его и держит, а ругие установки спокойно меняет?
AdminStarLord, спасибо. Пока сойдет.
StarLordAdmin, ага, вижу
StarLordAdmin, а как должно брать?
AdminStarLord, ты шаришь?
AdminStarLord, у меня сейчас такая, но с точками беда. Доработать бы (https?://([-\w\.]+)+(:\d+)?(/([-\w/_:%]*(\.\w+)*(\?\S+)?)?)?)
AdminStarLord, скрины в bb некорректно берет
StarLordwww, ftp(s), http(s), #, :, &
StarLordAdmin, все мои кейсы покрыла
StarLordAdmin, вот эта хорошая -(?:(?:https?|ftps?):\/\/|\b(?:[a-z\d]+\.))(?:(?:[^\s()<>]+|\((?:[^\s()<>]+|(?:\([^\s()<>]+\)))?\))+(?:\((?:[^\s()<>]+|(?:\(?:[^\s()<>]+\)))?\)|[^\s`!()\[\]{};:'".,<>?«»“”‘’]))?
AdminStarLord, мне бы с обязательным указанием протокола
AdminСообщение удалено (удалил: Admin)
AdminСообщение удалено (удалил: Admin)
  • StarLord
  • Andrey_alex
  • InSpector
  • pmihail99
Отправка сообщений доступна только зарегистрированным/авторизованным пользователям.
Онлайн (за 10 мин.): 4

Scooter - Live In Hamburg (2010) BDRip 1080p [HEVC] 8 bit от Cthulhu

HEVC
8 bit
Обложка Scooter - Live In Hamburg (2010) BDRip 1080p [HEVC] 8 bit от Cthulhu Год: 2010
Страна: Германия
Студия: Edel records
Жанр: Музыка
Продолжительность: 01:35:51

Состав:
H.P. Baxxter - vocals, MC, guitar
Michael Simon - producer, composer, keyboards and DJ
Phil Speiser - producer, composer and keyboards
Rick J. Jordan - sound design, audio engineering, composer, producer, keyboards, guitar
Jens Thele - management

Описание: Живой концерт группы Scooter с лучшими своими хитами. Scooter снова показывает зрелище. Световое шоу от компании Procon. Для грандиозного шоу были приглашены танцоры из разных стран Европы.

Треклист
01 Intro
02 J'adore Hardcore
03 Posse (I Need You On The Floor)
04 The Sound Above My Hair
05 Stuck On Replay
06 Jumping All Over The World
07 The Question Is What Is The Question?
08 Second Skin
09 Clic Clac / Scarborough Reloaded
10 Fire
11 Fuck The Millennium / Call Me Manana
12 Weekend!
13 Bit A Bad Boy
14 One (Always Hardcore)
15 Ti Sento
16 Jump That Rock (Whatever You Want)
17 Nessaja
18 How Much Is The Fish?
19 Maria (I Like It Loud)
20 Endless Summer / Hyper Hyper / Move Your Ass!

Видео: 1920x1080, 5759 Kbps
Аудио: AC3, 6 ch, 640 Kbps - АнглийскийАнглийский
Субтитры: нет

Медиаинфо
General
Unique ID : 231186670537967062007674087943997929826 (0xADECEEE3213A9728239C5964AEDAB962)
Complete name : S:MUSICALScooter - Live In Hamburg (2010) BDRip 1080p [HEVC]_Cthulhu.mkv
Format : Matroska
Format version : Version 4 / Version 2
File size : 4.29 GiB
Duration : 1 h 35 min
Overall bit rate : 6 402 kb/s
Movie name : Scooter - Live In Hamburg (2010) rip_by_Cthulhu
Encoded date : UTC 2018-03-03 20:55:25
Writing application : mkvmerge v21.0.0 ('Tardigrades Will Inherit The Earth') 64-bit
Writing library : libebml v1.3.5 + libmatroska v1.4.8
Cover : Yes
Attachments : cover.jpg

Video
ID : 1
Format : HEVC
Format/Info : High Efficiency Video Coding
Format profile : Main@L4.1@High
Codec ID : V_MPEGH/ISO/HEVC
Duration : 1 h 35 min
Bit rate : 5 759 kb/s
Width : 1 920 pixels
Height : 1 080 pixels
Display aspect ratio : 16:9
Frame rate mode : Constant
Frame rate : 25.000 FPS
Color space : YUV
Chroma subsampling : 4:2:0
Bit depth : 8 bits
Bits/(Pixel*Frame) : 0.111
Stream size : 3.86 GiB (90%)
Writing library : x265 2.6+49-7219376de42a:[Windows][clang 7.0.0][64 bit] 8bit
Encoding settings : cpuid=1050111 / frame-threads=5 / wpp / no-pmode / no-pme / no-psnr / no-ssim / log-level=3 / input-csp=1 / input-res=1920x1080 / interlace=0 / total-frames=0 / level-idc=41 / high-tier=1 / uhd-bd=0 / ref=4 / allow-non-conformance / no-repeat-headers / annexb / no-aud / no-hrd / info / hash=0 / no-temporal-layers / open-gop / min-keyint=25 / keyint=250 / gop-lookahead=0 / bframes=8 / b-adapt=2 / b-pyramid / bframe-bias=0 / rc-lookahead=40 / lookahead-slices=6 / scenecut=40 / radl=0 / no-intra-refresh / ctu=64 / min-cu-size=8 / no-rect / no-amp / max-tu-size=32 / tu-inter-depth=3 / tu-intra-depth=3 / limit-tu=0 / rdoq-level=2 / dynamic-rd=0.00 / no-ssim-rd / signhide / no-tskip / nr-intra=0 / nr-inter=0 / no-constrained-intra / strong-intra-smoothing / max-merge=3 / limit-refs=3 / no-limit-modes / me=3 / subme=7 / merange=57 / temporal-mvp / weightp / weightb / no-analyze-src-pics / deblock=-3:-3 / no-sao / no-sao-non-deblock / rd=4 / no-early-skip / rskip / no-fast-intra / no-tskip-fast / no-cu-lossless / no-b-intra / no-splitrd-skip / rdpenalty=0 / psy-rd=1.00 / psy-rdoq=0.00 / no-rd-refine / no-lossless / cbqpoffs=0 / crqpoffs=0 / rc=crf / crf=20.5 / qcomp=0.60 / qpstep=4 / stats-write=0 / stats-read=0 / vbv-maxrate=50000 / vbv-bufsize=35714 / vbv-init=0.9 / crf-max=0.0 / crf-min=0.0 / ipratio=1.40 / pbratio=1.30 / aq-mode=1 / aq-strength=0.80 / cutree / zone-count=0 / no-strict-cbr / qg-size=32 / no-rc-grain / qpmax=69 / qpmin=0 / no-const-vbv / sar=1 / overscan=0 / videoformat=5 / range=0 / colorprim=1 / transfer=1 / colormatrix=1 / chromaloc=0 / display-window=0 / max-cll=0,0 / min-luma=0 / max-luma=255 / log2-max-poc-lsb=8 / vui-timing-info / vui-hrd-info / slices=1 / no-opt-qp-pps / no-opt-ref-list-length-pps / no-multi-pass-opt-rps / scenecut-bias=0.05 / no-opt-cu-delta-qp / no-aq-motion / no-hdr / no-hdr-opt / no-dhdr10-opt / analysis-reuse-level=5 / scale-factor=0 / refine-intra=0 / refine-inter=0 / refine-mv=0 / no-limit-sao / ctu-info=0 / no-lowpass-dct / refine-mv-type=0 / copy-pic=1
Default : Yes
Forced : No
Color range : Limited
Color primaries : BT.709
Transfer characteristics : BT.709
Matrix coefficients : BT.709

Audio
ID : 2
Format : AC-3
Format/Info : Audio Coding 3
Format settings, Endianness : Big
Codec ID : A_AC3
Duration : 1 h 35 min
Bit rate mode : Constant
Bit rate : 640 kb/s
Channel(s) : 6 channels
Channel positions : Front: L C R, Side: L R, LFE
Sampling rate : 48.0 kHz
Frame rate : 31.250 FPS (1536 SPF)
Bit depth : 16 bits
Compression mode : Lossy
Stream size : 439 MiB (10%)
Language : English
Service kind : Complete Main
Default : Yes
Forced : No

Menu
00:00:00.000 : :Глава 1
00:02:21.560 : :Глава 2
00:06:36.480 : :Глава 3
00:10:59.880 : :Глава 4
00:15:15.120 : :Глава 5
00:21:20.000 : :Глава 6
00:25:39.800 : :Глава 7
00:29:31.000 : :Глава 8
00:35:32.000 : :Глава 9
00:41:30.000 : :Глава 10
00:45:35.640 : :Глава 11
00:51:18.480 : :Глава 12
00:55:14.520 : :Глава 13
00:59:07.440 : :Глава 14
01:03:42.160 : :Глава 15
01:08:24.520 : :Глава 16
01:12:54.240 : :Глава 17
01:17:21.240 : :Глава 18
01:21:56.560 : :Глава 19
01:28:41.480 : :Глава 20
01:35:51.080 : :Глава 21
Загрузка...Cкриншот1 Scooter - Live In Hamburg (2010) BDRip 1080p [HEVC] 8 bit от CthulhuЗагрузка...Cкриншот2 Scooter - Live In Hamburg (2010) BDRip 1080p [HEVC] 8 bit от CthulhuЗагрузка...Cкриншот3 Scooter - Live In Hamburg (2010) BDRip 1080p [HEVC] 8 bit от CthulhuЗагрузка...Cкриншот4 Scooter - Live In Hamburg (2010) BDRip 1080p [HEVC] 8 bit от Cthulhu
Торрент🧲 Магнет

Рейтинги КП и IMDB, кнопки "Позвать в чате" и "Спасибо", а также мультитрекерная статистика сидов и пиров доступны только зарегистрированным/авторизованным пользователям!

Файлы: 1
  • Scooter - Live In Hamburg (2010) BDRip 1080p [HEVC]_Cthulhu.mkv   4.29 ГБ
Поблагодарили: 5
anderb, Andry26, cdmitry, inet7052, inoy
Cthulhu
0287004.29 ГБ

Добавление нового комментария

Добавление комментариев доступно только зарегистрированным/авторизованным пользователям.