Регистрация / Смена пароля

💬 Мини-чат

04.12.2020 с 11:15 до 12:30 (по мск) будут проводится технические работы на стороне хостинг-провайдера.
AlchemistРаздайте, пожалуйста, Самолет президента / Air Force One (1997) BDRip 1080p [HEVC] 10 bit от HANNIBAL
AdminOldGamer, пролистывать не будут, но зато через поиск найдут.
OldGamerвряд ли кто будет потом пролистывать 1700 постов в ВК
OldGamerда думаю не надо
AdminПопробую связаться с техподдержкой, объясню ситуацию, попрошу на несколько минут снять лимит, если технически возможно. Может пойдут на встречу.
OldGamerо, и на принца персии отдача пошла, не прошло и года :)
Admin46 перенеслись + 4 были.
OldGamerпрошло?
AdminПоходу лимит 50 постов в день. Мда. Это же больше месяца потребуется, чтобы переносить.
AdminПопробую кусками по 100.
OldGamer"Попытка - не пытка" (с) :)
AdminСкрипт уже написал. Но не знаю есть ли в ВК лимит на количество постов в сутки. А то 1700 постов полетит туда.
AdminМожет добавить все существующие раздачи в ВК пока там нет пользователей? Чтобы потом не заспамить им новостную ленту. А то группа как-то пуста.
OldGamerSpartanec1308, привет
OldGamerSpartanec1308, 😃 ну бывает
Spartanec1308OldGamer, Привет!По ходу на счет Бронкса не понятка была.😁😁😁
AdminТеперь при добавлении или обновлении раздач будет происходить моментальный автопостинг в ВК. Адрес группы - https://vk.com/rips.club Кнопку на ВК добавлю завтра. Решить бы куда лучше её добавить.
AdminElico, возможно у вас проблемы с провайдером и доступом к некоторым IP.
AdminElico, с ссылками всё в порядке, проблема не в них. Какой у вас клиент? Заскриньте вкладку трекеры и отправьте мне в ЛС.
OldGamerElico, я не уходил с раздачи этого фильма. Возможно у вас проблемы с подключением. Может быть настройки торрент-клиента нужно менять.
  • Admin
  • joker63
  • alexyak
  • JackShredder
  • porsche_carrera
Отправка сообщений доступна только зарегистрированным/авторизованным пользователям.
Онлайн (за 10 мин.): 5

Крик / Scream (1996) BDRip 1080p [HEVC] 8 bit от XuMuK

HEVC
8 bit
Обложка Крик / Scream (1996) BDRip 1080p [HEVC] 8 bit от XuMuK Год: 1996
Страна: США
Жанр: Ужасы, Детектив
Продолжительность: 01:50:56

Режиссер: Уэс Крэйвен
В ролях: Нив Кэмпбелл, Кортни Кокс, Дэвид Аркетт, Скит Ульрих, Мэттью Лиллард, Джейми Кеннеди, Роуз МакГауэн, Дрю Бэрримор, Генри Уинклер

Описание: По городу прокатилась волна жестоких убийств, жертвами становятся беззащитные люди. Новой жертвой телефонного маньяка из городка Вудсборо может стать ещё одна девушка — Сидни Прескотт. Год назад у неё была изнасилована и убита мать, теперь маньяк угрожает ей самой. Но в первой ночной схватке с убийцей, девушка смогла спастись. Полиция находит на месте покушения маску и плащ. Впрочем, такие маски можно купить в лавке ужасов, и проку для следствия от найденных улик нет никакого. Нет, вроде, и мотивов для убийств, если только не принять за главную версию, что маньяк — страстный поклонник фильмов ужасов и убивает свои жертвы только ради удовольствия…


Видео: 1920x816, 6785 Kbps
Аудио: AAC, 6 ch, 384 Kbps - РусскийРусский, Двухголосый (R5)
Субтитры: нет

Медиаинфо
Общее
Уникальный идентификатор : 198921606073017632586802061333348863524 (0x95A6E863C1A6CB98A981A1469D3DCE24)
Полное имя : I:HEVC 2ScreamScream_1_1996_BDRip_1080p_[HEVC].mkv
Формат : Matroska
Версия формата : Version 4 / Version 2
Размер файла : 5,55 Гбайт
Продолжительность : 1 ч. 50 м.
Общий поток : 7168 Кбит/сек
Дата кодирования : UTC 2017-07-19 17:29:15
Программа кодирования : mkvmerge v9.7.1 ('Pandemonium') 64bit
Библиотека кодирования : libebml v1.3.4 + libmatroska v1.4.5
Обложка : Yes
Attachments : cover.png

Видео
Идентификатор : 1
Формат : HEVC
Формат/Информация : High Efficiency Video Coding
Профиль формата : Main@L4.1@High
Идентификатор кодека : V_MPEGH/ISO/HEVC
Продолжительность : 1 ч. 50 м.
Битрейт : 6785 Кбит/сек
Ширина : 1920 пикселей
Высота : 816 пикселей
Соотношение сторон : 2,35:1
Режим частоты кадров : Постоянный
Частота кадров : 23,976 (24000/1001) кадра/сек
Цветовое пространство : YUV
Субдискретизация насыщенности : 4:2:0
Битовая глубина : 8 бит
Бит/(Пиксели*Кадры) : 0.181
Размер потока : 5,26 Гбайт (95%)
Библиотека кодирования : x265 2.4+6-fd01abfc7898:[Windows][GCC 6.3.0][64 bit] 8bit+10bit+12bit
Настройки программы : cpuid=1173503 / frame-threads=3 / numa-pools=8 / wpp / no-pmode / no-pme / no-psnr / no-ssim / log-level=2 / input-csp=1 / input-res=1920x816 / interlace=0 / total-frames=0 / level-idc=41 / high-tier=1 / uhd-bd=0 / ref=4 / no-allow-non-conformance / no-repeat-headers / annexb / no-aud / no-hrd / info / hash=0 / no-temporal-layers / open-gop / min-keyint=23 / keyint=240 / bframes=8 / b-adapt=2 / b-pyramid / bframe-bias=0 / rc-lookahead=40 / lookahead-slices=4 / scenecut=40 / no-intra-refresh / ctu=64 / min-cu-size=8 / rect / no-amp / max-tu-size=32 / tu-inter-depth=3 / tu-intra-depth=3 / limit-tu=0 / rdoq-level=2 / dynamic-rd=0.00 / no-ssim-rd / signhide / no-tskip / nr-intra=0 / nr-inter=0 / no-constrained-intra / strong-intra-smoothing / max-merge=3 / limit-refs=3 / limit-modes / me=2 / subme=4 / merange=32 / temporal-mvp / weightp / weightb / no-analyze-src-pics / deblock=-2:-2 / no-sao / no-sao-non-deblock / rd=4 / no-early-skip / rskip / no-fast-intra / no-tskip-fast / no-cu-lossless / no-b-intra / rdpenalty=0 / psy-rd=2.00 / psy-rdoq=1.00 / no-rd-refine / analysis-mode=0 / no-lossless / cbqpoffs=0 / crqpoffs=0 / rc=crf / crf=20.0 / qcomp=0.60 / qpstep=4 / stats-write=0 / stats-read=0 / vbv-maxrate=50000 / vbv-bufsize=50000 / vbv-init=0.9 / crf-max=0.0 / crf-min=0.0 / ipratio=1.40 / pbratio=1.30 / aq-mode=3 / aq-strength=0.90 / cutree / zone-count=1 / zones: / start-frame=149432 / end-frame=159601 / qp=35 / no-strict-cbr / qg-size=32 / no-rc-grain / qpmax=69 / qpmin=0 / sar=0 / overscan=0 / videoformat=5 / range=0 / colorprim=2 / transfer=2 / colormatrix=1 / chromaloc=0 / display-window=0 / max-cll=0,0 / min-luma=0 / max-luma=255 / log2-max-poc-lsb=8 / vui-timing-info / vui-hrd-info / slices=1 / opt-qp-pps / opt-ref-list-length-pps / no-multi-pass-opt-rps / scenecut-bias=0.05 / no-opt-cu-delta-qp / no-aq-motion / no-hdr / no-hdr-opt / no-dhdr10-opt / refine-level=5 / no-limit-sao
Default : Да
Forced : Да
Цветовой диапазон : Limited
Коэффициенты матрицы : BT.709

Аудио
Идентификатор : 2
Формат : AAC
Формат/Информация : Advanced Audio Codec
Профиль формата : LC
Идентификатор кодека : A_AAC
Продолжительность : 1 ч. 50 м.
Битрейт : 384 Кбит/сек
Каналы : 6 каналов
Расположение каналов : Front: L C R, Side: L R, LFE
Частота : 48,0 КГц
Частота кадров : 46,875 кадров/сек (1024 spf)
Метод сжатия : С потерями
Задержка видео : 20 мс.
Размер потока : 302 Мбайт (5%)
Заголовок : Многоголосый R5
Язык : Russian
Default : Да
Forced : Нет
Загрузка...Cкриншот1 Крик / Scream (1996) BDRip 1080p [HEVC] 8 bit от XuMuKЗагрузка...Cкриншот2 Крик / Scream (1996) BDRip 1080p [HEVC] 8 bit от XuMuKЗагрузка...Cкриншот3 Крик / Scream (1996) BDRip 1080p [HEVC] 8 bit от XuMuKЗагрузка...Cкриншот4 Крик / Scream (1996) BDRip 1080p [HEVC] 8 bit от XuMuK

Торрент🧲 Магнет

Рейтинги КП и IMDB, кнопки "Позвать в чате" и "Спасибо", а также мультитрекерная статистика сидов и пиров доступны только зарегистрированным/авторизованным пользователям!

Файлы: 1
  • Scream_1_1996_BDRip_1080p_[HEVC].mkv   5.55 ГБ
Поблагодарили: 3
bs158250, Kiran, makss333
Admin
07005.55 ГБ

Добавление нового комментария

Добавление комментариев доступно только зарегистрированным/авторизованным пользователям.