Регистрация / Смена пароля

💬 Мини-чат

04.12.2020 с 11:15 до 12:30 (по мск) будут проводится технические работы на стороне хостинг-провайдера.
AlchemistРаздайте, пожалуйста, Самолет президента / Air Force One (1997) BDRip 1080p [HEVC] 10 bit от HANNIBAL
AdminOldGamer, пролистывать не будут, но зато через поиск найдут.
OldGamerвряд ли кто будет потом пролистывать 1700 постов в ВК
OldGamerда думаю не надо
AdminПопробую связаться с техподдержкой, объясню ситуацию, попрошу на несколько минут снять лимит, если технически возможно. Может пойдут на встречу.
OldGamerо, и на принца персии отдача пошла, не прошло и года :)
Admin46 перенеслись + 4 были.
OldGamerпрошло?
AdminПоходу лимит 50 постов в день. Мда. Это же больше месяца потребуется, чтобы переносить.
AdminПопробую кусками по 100.
OldGamer"Попытка - не пытка" (с) :)
AdminСкрипт уже написал. Но не знаю есть ли в ВК лимит на количество постов в сутки. А то 1700 постов полетит туда.
AdminМожет добавить все существующие раздачи в ВК пока там нет пользователей? Чтобы потом не заспамить им новостную ленту. А то группа как-то пуста.
OldGamerSpartanec1308, привет
OldGamerSpartanec1308, 😃 ну бывает
Spartanec1308OldGamer, Привет!По ходу на счет Бронкса не понятка была.😁😁😁
AdminТеперь при добавлении или обновлении раздач будет происходить моментальный автопостинг в ВК. Адрес группы - https://vk.com/rips.club Кнопку на ВК добавлю завтра. Решить бы куда лучше её добавить.
AdminElico, возможно у вас проблемы с провайдером и доступом к некоторым IP.
AdminElico, с ссылками всё в порядке, проблема не в них. Какой у вас клиент? Заскриньте вкладку трекеры и отправьте мне в ЛС.
OldGamerElico, я не уходил с раздачи этого фильма. Возможно у вас проблемы с подключением. Может быть настройки торрент-клиента нужно менять.
  • Admin
  • abtr
  • MPBD
  • Zorg
Отправка сообщений доступна только зарегистрированным/авторизованным пользователям.
Онлайн (за 10 мин.): 4

Крик 3 / Scream 3 (2000) BDRip 1080p [HEVC] 8 bit от XuMuK

HEVC
8 bit
Обложка Крик 3 / Scream 3 (2000) BDRip 1080p [HEVC] 8 bit от XuMuK Год: 2000
Страна: США
Студия: Dimension Films, Konrad Pictures, Craven-Maddalena Films
Жанр: Ужасы, Детектив
Продолжительность: 01:56:33

Режиссер: Уэс Крэйвен
В ролях: Нив Кэмпбелл, Кортни Кокс, Дэвид Аркетт, Патрик Демпси, Лив Шрайбер, Скотт Фоули, Лэнс Хенриксен, Эмили Мортимер, Паркер Поузи, Дженни МакКарти

Описание: Как и должно было случиться, ужасные происшествия в Вудсборо стали идеальным материалом для Голливуда: там снималась уже третья серия фильма «Удар ножом». Тем временем Сидни ведет уединенный образ жизни в Северной Калифорнии, где и узнает о новых чудовищных убийствах. Прошлое вновь назначает ей смертельную встречу, и на этот раз круг должен замкнуться…


Видео: 1918x812, 6880 Kbps
Аудио: AAC, 6 ch, 384 Kbps - РусскийРусский, Дублированный (R5)
Субтитры: нет

Медиаинфо
Общее
Уникальный идентификатор : 213816803672039850686249105628436414178 (0xA0DB9E54BD306179A21736B2D2B8BEE2)
Полное имя : I:HEVC 2ScreamScream_3_2000_BDRip_1080p_[HEVC].mkv
Формат : Matroska
Версия формата : Version 4 / Version 2
Размер файла : 5,92 Гбайт
Продолжительность : 1 ч. 56 м.
Общий поток : 7265 Кбит/сек
Дата кодирования : UTC 2017-07-26 16:23:21
Программа кодирования : mkvmerge v9.7.1 ('Pandemonium') 64bit
Библиотека кодирования : libebml v1.3.4 + libmatroska v1.4.5
Обложка : Yes
Attachments : cover.png

Видео
Идентификатор : 1
Формат : HEVC
Формат/Информация : High Efficiency Video Coding
Профиль формата : Main@L4.1@High
Идентификатор кодека : V_MPEGH/ISO/HEVC
Продолжительность : 1 ч. 56 м.
Битрейт : 6880 Кбит/сек
Ширина : 1918 пикселей
Высота : 812 пикселей
Соотношение сторон : 2,35:1
Режим частоты кадров : Постоянный
Частота кадров : 23,976 (24000/1001) кадра/сек
Цветовое пространство : YUV
Субдискретизация насыщенности : 4:2:0
Битовая глубина : 8 бит
Бит/(Пиксели*Кадры) : 0.184
Размер потока : 5,60 Гбайт (95%)
Библиотека кодирования : x265 2.4+6-fd01abfc7898:[Windows][GCC 6.3.0][64 bit] 8bit+10bit+12bit
Настройки программы : cpuid=1173503 / frame-threads=3 / numa-pools=8 / wpp / no-pmode / no-pme / no-psnr / no-ssim / log-level=2 / input-csp=1 / input-res=1918x812 / interlace=0 / total-frames=0 / level-idc=41 / high-tier=1 / uhd-bd=0 / ref=4 / no-allow-non-conformance / no-repeat-headers / annexb / no-aud / no-hrd / info / hash=0 / no-temporal-layers / open-gop / min-keyint=23 / keyint=240 / bframes=10 / b-adapt=2 / b-pyramid / bframe-bias=0 / rc-lookahead=25 / lookahead-slices=4 / scenecut=40 / no-intra-refresh / ctu=64 / min-cu-size=8 / rect / no-amp / max-tu-size=32 / tu-inter-depth=2 / tu-intra-depth=2 / limit-tu=0 / rdoq-level=2 / dynamic-rd=0.00 / no-ssim-rd / signhide / no-tskip / nr-intra=0 / nr-inter=0 / no-constrained-intra / strong-intra-smoothing / max-merge=3 / limit-refs=3 / limit-modes / me=2 / subme=4 / merange=32 / temporal-mvp / weightp / weightb / no-analyze-src-pics / deblock=-3:-3 / no-sao / no-sao-non-deblock / rd=4 / no-early-skip / rskip / no-fast-intra / no-tskip-fast / no-cu-lossless / no-b-intra / rdpenalty=0 / psy-rd=2.00 / psy-rdoq=2.00 / no-rd-refine / analysis-mode=0 / no-lossless / cbqpoffs=0 / crqpoffs=0 / rc=crf / crf=20.0 / qcomp=0.60 / qpstep=4 / stats-write=0 / stats-read=0 / vbv-maxrate=50000 / vbv-bufsize=50000 / vbv-init=0.9 / crf-max=0.0 / crf-min=0.0 / ipratio=1.40 / pbratio=1.30 / aq-mode=3 / aq-strength=0.90 / cutree / zone-count=1 / zones: / start-frame=160973 / end-frame=167732 / qp=35 / no-strict-cbr / qg-size=32 / no-rc-grain / qpmax=69 / qpmin=0 / sar=0 / overscan=0 / videoformat=5 / range=0 / colorprim=2 / transfer=2 / colormatrix=1 / chromaloc=0 / display-window=0 / max-cll=0,0 / min-luma=0 / max-luma=255 / log2-max-poc-lsb=8 / vui-timing-info / vui-hrd-info / slices=1 / opt-qp-pps / opt-ref-list-length-pps / no-multi-pass-opt-rps / scenecut-bias=0.05 / no-opt-cu-delta-qp / aq-motion / no-hdr / no-hdr-opt / no-dhdr10-opt / refine-level=5 / no-limit-sao
Default : Да
Forced : Да
Цветовой диапазон : Limited
Коэффициенты матрицы : BT.709

Аудио
Идентификатор : 2
Формат : AAC
Формат/Информация : Advanced Audio Codec
Профиль формата : LC
Идентификатор кодека : A_AAC
Продолжительность : 1 ч. 56 м.
Битрейт : 384 Кбит/сек
Каналы : 6 каналов
Расположение каналов : Front: L C R, Side: L R, LFE
Частота : 48,0 КГц
Частота кадров : 46,875 кадров/сек (1024 spf)
Метод сжатия : С потерями
Задержка видео : 20 мс.
Размер потока : 318 Мбайт (5%)
Заголовок : Дубляж, R5
Язык : Russian
Default : Да
Forced : Нет
Загрузка...Cкриншот1 Крик 3 / Scream 3 (2000) BDRip 1080p [HEVC] 8 bit от XuMuKЗагрузка...Cкриншот2 Крик 3 / Scream 3 (2000) BDRip 1080p [HEVC] 8 bit от XuMuKЗагрузка...Cкриншот3 Крик 3 / Scream 3 (2000) BDRip 1080p [HEVC] 8 bit от XuMuKЗагрузка...Cкриншот4 Крик 3 / Scream 3 (2000) BDRip 1080p [HEVC] 8 bit от XuMuK

Торрент🧲 Магнет

Рейтинги КП и IMDB, кнопки "Позвать в чате" и "Спасибо", а также мультитрекерная статистика сидов и пиров доступны только зарегистрированным/авторизованным пользователям!

Файлы: 1
  • Scream_3_2000_BDRip_1080p_[HEVC].mkv   5.92 ГБ
Поблагодарили: 3
bs158250, Kiran, makss333
Admin
07105.92 ГБ

Добавление нового комментария

Добавление комментариев доступно только зарегистрированным/авторизованным пользователям.