💬 Мини-чат

Убедительная просьба не обсуждать тут политику.
AdminЛёшикоБэст, вроде потихоньку идёт. Подождем, если не докачается, то встану.
AdminЛёшикоБэст, перекачайте торрент, а то в профиле не отображается ждете или уже нет
ЛёшикоБэстРаздайте, пожалуйста, Неудержимые / The Expendables (2010) [Theatrical Cut] BDRip 1080p [HEVC] 10 bit от Spartanec1308
OldGamerДа, есть.
ЛёшикоБэстДоброго вечера) Скажите пожалуйста, есть ли в планах сделать релиз дилогии "Зорро" с Антонио Бандерасом?
HANNIBALAdmin, 👍
AdminГоро, встал
ГороРаздайте, пожалуйста, Хищники / Predators (2010) BDRip 1080p [HEVC] 10 bit от HANNIBAL
AdminHANNIBAL, привет. Не помню за сколько брал, но продление в этот раз обошлось примерно в $14 со всякими комиссиями. А аренда VDS обходится примерно в $30-35 за год. Не исключено, что всё это подорожает. Пока что пожертвования с трудом покрывают расходы. Иногда если требуется и со своего кармана оплачиваю, не страшно. Прорвемся.
HANNIBALсколько сейчас стоит
HANNIBALAdmin, ПРИВЕТ
AdminНаконец-то получил банковскую карту. Продлил доменное имя (адрес сайта) на год.
  • ivan_1965
Отправка сообщений доступна только зарегистрированным/авторизованным пользователям.
Онлайн (за 10 мин.): 1

Голая правда / The Ugly Truth (2009) BDRip 1080p [HEVC] 10 bit от HANNIBAL

HEVC
10 bit
Обложка Голая правда / The Ugly Truth (2009) BDRip 1080p [HEVC] 10 bit от HANNIBAL Год: 2009
Страна: США
Студия: Columbia Pictures
Жанр: Мелодрама, Комедия
Продолжительность: 01:35:57

Режиссер: Роберт Лукетич
В ролях: Кэтрин Хайгл, Джерард Батлер, Бри Тёрнер, Эрик Винтер, Ник Сирси, Джесси Д. Гойнс, Шерил Хайнс, Джон Майкл Хиггинс, Ной Мэтьюз, Бонни Соммервиль

Описание: Он — восходящая звезда нового телешоу, и его жизненное кредо — «секс, наркотики и рок-н-ролл», он совсем не признает равенство полов, политкорректность и так далее… В общем, настоящий мачо.


Видео: 1920x800, 8564 Kbps
Аудио: AC3, 6 ch, 640 Kbps - РусскийРусский, Дублированный
Субтитры: нет

Медиаинфо
General
Unique ID : 257929030291392750367852573588968332573 (0xC20B5305185AAF7BFACB79506C725D1D)
Complete name : E:\The Ugly Truth (2009) BDRip 1080p [HEVC] 10bit.mkv
Format : Matroska
Format version : Version 4
File size : 6.29 GiB
Duration : 1 h 35 min
Overall bit rate : 9 391 kb/s
Movie name : Голая правда
Writing application : XviD4PSP 7.0.459 DAILY
Writing library : Lavf57.71.100
ErrorDetectionType : Per level 1
Attachments : poster.jpg
ACTORS : Кэтрин Хайгл, Джерард Батлер,
COUNTRY : США
DATE : 2009
DIRECTOR : Роберт Лукетич
ENCODING_INFO : MPEGTS > MKV 1080p 10-bit / H264 > X265 CRF 19.0 Medium / AC3 > AC3 CBR 640kbps
GENRE : мелодрама, комедия
HD_VIDEO : 1
Language : und
MEDIA_TYPE : 9
ORIGINAL_TITLE : The Ugly Truth

Video
ID : 1
Format : HEVC
Format/Info : High Efficiency Video Coding
Codec ID : V_MPEGH/ISO/HEVC
Duration : 1 h 35 min
Bit rate : 8 564 kb/s
Width : 1 920 pixels
Height : 800 pixels
Display aspect ratio : 2.40:1
Frame rate mode : Constant
Frame rate : 23.976 (24000/1001) FPS
Color space : YUV
Chroma subsampling : 4:2:0
Bit depth : 10 bits
Bits/(Pixel*Frame) : 0.233
Stream size : 5.74 GiB (91%)
Writing library : x265 2.8+74-fd517ae68f93:[Windows][GCC 7.3.0][64 bit] 10bit
Encoding settings : cpuid=1111039 / frame-threads=13 / numa-pools=12 / wpp / no-pmode / no-pme / no-psnr / no-ssim / log-level=3 / input-csp=1 / input-res=1920x800 / interlace=0 / total-frames=0 / level-idc=41 / high-tier=1 / uhd-bd=0 / ref=7 / allow-non-conformance / no-repeat-headers / annexb / no-aud / no-hrd / info / hash=0 / no-temporal-layers / no-open-gop / min-keyint=24 / keyint=240 / gop-lookahead=0 / bframes=9 / b-adapt=2 / b-pyramid / bframe-bias=0 / rc-lookahead=40 / lookahead-slices=5 / scenecut=40 / radl=0 / no-intra-refresh / ctu=64 / min-cu-size=8 / rect / amp / max-tu-size=32 / tu-inter-depth=1 / tu-intra-depth=1 / limit-tu=0 / rdoq-level=0 / dynamic-rd=0.00 / no-ssim-rd / signhide / no-tskip / nr-intra=0 / nr-inter=0 / no-constrained-intra / no-strong-intra-smoothing / max-merge=2 / limit-refs=3 / no-limit-modes / me=3 / subme=7 / merange=57 / temporal-mvp / weightp / no-weightb / no-analyze-src-pics / deblock=-2:-2 / no-sao / no-sao-non-deblock / rd=3 / no-early-skip / rskip / no-fast-intra / no-tskip-fast / no-cu-lossless / no-b-intra / no-splitrd-skip / rdpenalty=0 / psy-rd=2.00 / psy-rdoq=0.00 / no-rd-refine / no-lossless / cbqpoffs=0 / crqpoffs=0 / rc=crf / crf=19.0 / qcomp=0.60 / qpstep=4 / stats-write=0 / stats-read=0 / vbv-maxrate=50000 / vbv-bufsize=50000 / vbv-init=0.9 / crf-max=0.0 / crf-min=0.0 / ipratio=1.40 / pbratio=1.30 / aq-mode=1 / aq-strength=1.00 / cutree / zone-count=0 / no-strict-cbr / qg-size=32 / no-rc-grain / qpmax=69 / qpmin=0 / no-const-vbv / sar=1 / overscan=0 / videoformat=5 / range=0 / colorprim=1 / transfer=1 / colormatrix=1 / chromaloc=0 / display-window=0 / max-cll=0,0 / min-luma=0 / max-luma=1023 / log2-max-poc-lsb=8 / vui-timing-info / vui-hrd-info / slices=1 / no-opt-qp-pps / no-opt-ref-list-length-pps / no-multi-pass-opt-rps / scenecut-bias=0.05 / no-opt-cu-delta-qp / no-aq-motion / no-hdr / no-hdr-opt / no-dhdr10-opt / no-idr-recovery-sei / analysis-reuse-level=5 / scale-factor=0 / refine-intra=0 / refine-inter=0 / refine-mv=0 / no-limit-sao / ctu-info=0 / no-lowpass-dct / refine-mv-type=0 / copy-pic=1 / max-ausize-factor=1.0 / no-dynamic-refine / no-single-sei
Default : Yes
Forced : No
Color range : Limited
Color primaries : BT.709
Transfer characteristics : BT.709
Matrix coefficients : BT.709

Audio
ID : 2
Format : AC-3
Format/Info : Audio Coding 3
Commercial name : Dolby Digital
Codec ID : A_AC3
Duration : 1 h 35 min
Bit rate mode : Constant
Bit rate : 640 kb/s
Channel(s) : 6 channels
Channel layout : L R C LFE Ls Rs
Sampling rate : 48.0 kHz
Frame rate : 31.250 FPS (1536 SPF)
Bit depth : 16 bits
Compression mode : Lossy
Stream size : 439 MiB (7%)
Service kind : Complete Main
Default : Yes
Forced : No

Menu
00:00:00.000 : :Глава 1
00:13:19.799 : :Глава 2
00:26:05.480 : :Глава 3
00:37:24.325 : :Глава 4
00:49:26.672 : :Глава 5
01:02:46.304 : :Глава 6
01:15:53.882 : :Глава 7
01:25:56.192 : :Глава 8
01:34:30.915 : :Глава 9
Загрузка...Cкриншот1 Голая правда / The Ugly Truth (2009) BDRip 1080p [HEVC] 10 bit от HANNIBALЗагрузка...Cкриншот2 Голая правда / The Ugly Truth (2009) BDRip 1080p [HEVC] 10 bit от HANNIBALЗагрузка...Cкриншот3 Голая правда / The Ugly Truth (2009) BDRip 1080p [HEVC] 10 bit от HANNIBALЗагрузка...Cкриншот4 Голая правда / The Ugly Truth (2009) BDRip 1080p [HEVC] 10 bit от HANNIBAL
Сэмпл Торрент🧲 Магнет

Рейтинги КП и IMDB, кнопки "Позвать в чате" и "Спасибо", а также мультитрекерная статистика доступны только зарегистрированным/авторизованным пользователям!

Файлы: 1
  • The Ugly Truth (2009) BDRip 1080p [HEVC] 10bit.mkv   6.29 ГБ
Поблагодарили: 3
davidoff_k4, donadar, nach
Admin
5571066.29 ГБ

Добавление нового комментария

Добавление комментариев доступно только зарегистрированным/авторизованным пользователям.
Аватар Cthulhu
  Cthulhu  (Отредактировал Cthulhu)    
cyber-master писал(а):
Скачал повторно, сыпется картинка на пиксели, причем по всему экрану. В чем проблема интересно, такое впервые. Плеер для видео у меня Egreat A10. Так же картинка сыпется и на самом плеере в ТВ. Невезуха с этим фильмом!
Сыпется из за этого level-idc=41 / ref=7. Не каждый ТВ может нормально скушать 1080р с 7-ю референс кадрами. А тут еще конфликт с выставленным профилем. Смотри на ПК вобщем.
Аватар OldGamer
  OldGamer  
cyber-master писал(а):
Скачал повторно, сыпется картинка на пиксели, причем по всему экрану. В чем проблема интересно, такое впервые. Плеер для видео у меня Egreat A10. Так же картинка сыпется и на самом плеере в ТВ. Невезуха с этим фильмом!
это на андроиде? декодер менять пробовали? hardware, software
Аватар не указан
  cyber-master  
Скачал повторно, сыпется картинка на пиксели, причем по всему экрану. В чем проблема интересно, такое впервые. Плеер для видео у меня Egreat A10. Так же картинка сыпется и на самом плеере в ТВ. Невезуха с этим фильмом!
Аватар Admin
  Admin  
cyber-master писал(а):
Только у меня картинка сыпется пиксилями или у всех? Пробовал на разных плеерах смотреть- сыпется вся...
может не докачал?
Аватар не указан
  cyber-master  
Только у меня картинка сыпется пиксилями или у всех? Пробовал на разных плеерах смотреть- сыпется вся...