💬 Мини-чат

BrooklynOldGamer, Ок, спасибо, качаю.
OldGamerBrooklyn, они все на раздаче пока что
BrooklynOldGamer, Пораздавайте, пожалуйста, все сезоны сериала "Гримм" ближайшие 3 дня, очень хочу их забрать. Качество отличное. Заранее Благодарен.
StarLordСообщение удалено (удалил: StarLord)
OldGamerвыводить
mafo2Admin, можно вывести, наглядно будет
StarLordAdmin, +
AdminНадпись HDR выводить на обложку?
OldGamerGiggalo, но лучше всего вообще не затрагивайте этот ключ, по умолчанию будет установлено оптимальное значение
OldGamerGiggalo, но если уж очень хочется то пишите --frame-threads 3
OldGamerGiggalo, а зачем его менять?) нужное значение устанавливается автоматически
GiggaloДобрый вечер всем! OldGamer Покажи пожалуйста почему когда пишу в командной строке frame-threads=3 он не меняется. Какой там стоит 13 он его и держит, а ругие установки спокойно меняет?
AdminStarLord, спасибо. Пока сойдет.
StarLordAdmin, ага, вижу
StarLordAdmin, а как должно брать?
AdminStarLord, ты шаришь?
AdminStarLord, у меня сейчас такая, но с точками беда. Доработать бы (https?://([-\w\.]+)+(:\d+)?(/([-\w/_:%]*(\.\w+)*(\?\S+)?)?)?)
AdminStarLord, скрины в bb некорректно берет
StarLordwww, ftp(s), http(s), #, :, &
StarLordAdmin, все мои кейсы покрыла
  • OldGamer
  • InSpector
  • maxmax07
  • moonson
  • zanzybar
Отправка сообщений доступна только зарегистрированным/авторизованным пользователям.
Онлайн (за 10 мин.): 5

Горячие головы 2 / Hot Shots! Part Deux (1993) BDRip 1080p [HEVC] 10 bit от Cthulhu

HEVC
10 bit
Обложка Горячие головы 2 / Hot Shots! Part Deux (1993) BDRip 1080p [HEVC] 10 bit от Cthulhu Год: 1993
Страна: США
Жанр: Боевик, Комедия
Продолжительность: 01:28:32

Режиссер: Джим Абрахамс
В ролях: Чарли Шин, Валерия Голино, Ллойд Бриджес, Ричард Кренна, Бренда Бакки, Мигель Феррер, Роуэн Эткинсон, Джерри Халева, Дэвид Уол, Митч Райан, Майкл Коляр, Райан Стайлз, Бен Лемон, Бак МакДансер, Ларри Линдси, Эд Бехелер

Описание: На этот раз пилот-ас Топпер Харли, покинув службу, живет в далеком тибетском монастыре, где он нашел гармонию внутри себя, сбалансировав свой Инь и Янь. Но стране снова нужен герой. И он, с неохотой покидая полюбившихся ему монахов, возвращается на службу. Ему поручается секретное задание по спасению заложников из лап Саддама Хусейна. Но к всеобщей радости, Топпер — необычный человек, который все переворачивает с ног на голову.


Видео: 1918x1040, 6282 Kbps
Аудио1: AC3, 2 ch, 384 Kbps - РусскийРусский, Многоголосый (ОРТ)
Аудио2: AC3, 2 ch, 384 Kbps - РусскийРусский, Двухголосый (Премьер Видео)
Аудио3: AC3, 2 ch, 384 Kbps - РусскийРусский, Одноголосый (Михалёв)
Аудио4: AC3, 2 ch, 384 Kbps - РусскийРусский, Одноголосый (Живов)
Аудио5: AC3, 4 ch, 640 Kbps - АнглийскийАнглийский, Оригинал
Субтитры: Русские, английские

Как за пару секунд удалить ненужные аудиодорожки и субтитры (Внимание! После удаления вы не сможете поддержать раздачу)

Медиаинфо
General
Unique ID : 224130093429898944142496461051274984626 (0xA89DE2C63EFF21D4B9E180CAAF87FCB2)
Complete name : F:HEVCHot Shots! Part Deux (1993) BDRip 1080p [HEVC] 10Bit.mkv
Format : Matroska
Format version : Version 4 / Version 2
File size : 5.23 GiB
Duration : 1 h 28 min
Overall bit rate : 8 461 kb/s
Movie name : rip_by_Cthulhu
Encoded date : UTC 2017-12-28 15:07:58
Writing application : mkvmerge v18.0.0 ('Apricity') 64-bit
Writing library : libebml v1.3.5 + libmatroska v1.4.8
Cover : Yes
Attachments : cover2.jpg

Video
ID : 1
Format : HEVC
Format/Info : High Efficiency Video Coding
Format profile : Main 10@L4.1@High
Codec ID : V_MPEGH/ISO/HEVC
Duration : 1 h 28 min
Bit rate : 6 282 kb/s
Width : 1 918 pixels
Height : 1 040 pixels
Display aspect ratio : 1.85:1
Frame rate mode : Constant
Frame rate : 23.976 (24000/1001) FPS
Color space : YUV
Chroma subsampling : 4:2:0
Bit depth : 10 bits
Bits/(Pixel*Frame) : 0.131
Stream size : 3.89 GiB (74%)
Writing library : x265 2.6+8-fc0570b8d8f9:[Windows][GCC 7.1.0][64 bit] 10bit
Encoding settings : cpuid=1050111 / frame-threads=5 / numa-pools=4 / wpp / no-pmode / no-pme / no-psnr / no-ssim / log-level=3 / input-csp=1 / input-res=1918x1040 / interlace=0 / total-frames=0 / level-idc=41 / high-tier=1 / uhd-bd=0 / ref=4 / no-allow-non-conformance / no-repeat-headers / annexb / no-aud / no-hrd / info / hash=0 / no-temporal-layers / open-gop / min-keyint=24 / keyint=240 / gop-lookahead=0 / bframes=10 / b-adapt=2 / b-pyramid / bframe-bias=0 / rc-lookahead=60 / lookahead-slices=6 / scenecut=40 / no-intra-refresh / ctu=64 / min-cu-size=8 / no-rect / no-amp / max-tu-size=32 / tu-inter-depth=3 / tu-intra-depth=3 / limit-tu=0 / rdoq-level=0 / dynamic-rd=0.00 / no-ssim-rd / signhide / no-tskip / nr-intra=0 / nr-inter=0 / no-constrained-intra / strong-intra-smoothing / max-merge=3 / limit-refs=3 / no-limit-modes / me=2 / subme=6 / merange=57 / temporal-mvp / weightp / weightb / no-analyze-src-pics / deblock=-3:-3 / no-sao / no-sao-non-deblock / rd=3 / no-early-skip / rskip / no-fast-intra / no-tskip-fast / no-cu-lossless / no-b-intra / no-splitrd-skip / rdpenalty=0 / psy-rd=1.00 / psy-rdoq=0.00 / no-rd-refine / analysis-reuse-mode=0 / no-lossless / cbqpoffs=0 / crqpoffs=0 / rc=crf / crf=20.5 / qcomp=0.60 / qpstep=4 / stats-write=0 / stats-read=0 / vbv-maxrate=50000 / vbv-bufsize=50000 / vbv-init=0.9 / crf-max=30.0 / crf-min=0.0 / ipratio=1.40 / pbratio=1.30 / aq-mode=1 / aq-strength=0.80 / cutree / zone-count=0 / no-strict-cbr / qg-size=32 / no-rc-grain / qpmax=69 / qpmin=0 / no-const-vbv / sar=1 / overscan=0 / videoformat=5 / range=0 / colorprim=2 / transfer=2 / colormatrix=2 / chromaloc=0 / display-window=0 / max-cll=0,0 / min-luma=0 / max-luma=1023 / log2-max-poc-lsb=8 / vui-timing-info / vui-hrd-info / slices=1 / no-opt-qp-pps / no-opt-ref-list-length-pps / no-multi-pass-opt-rps / scenecut-bias=0.05 / no-opt-cu-delta-qp / no-aq-motion / no-hdr / no-hdr-opt / no-dhdr10-opt / analysis-reuse-level=5 / scale-factor=0 / refine-intra=0 / refine-inter=0 / refine-mv=0 / no-limit-sao / ctu-info=0 / no-lowpass-dct / refine-mv-type=0 / copy-pic=1
Language : English
Default : Yes
Forced : No
Color range : Full

Audio #1
ID : 2
Format : AC-3
Format/Info : Audio Coding 3
Format settings, Endianness : Big
Codec ID : A_AC3
Duration : 1 h 28 min
Bit rate mode : Constant
Bit rate : 384 kb/s
Channel(s) : 2 channels
Channel positions : Front: L R
Sampling rate : 48.0 kHz
Frame rate : 31.250 FPS (1536 SPF)
Bit depth : 16 bits
Compression mode : Lossy
Stream size : 243 MiB (5%)
Title : AC3 (Многоголосый) ОРТ
Language : Russian
Service kind : Complete Main
Default : Yes
Forced : No

Audio #2
ID : 3
Format : AC-3
Format/Info : Audio Coding 3
Format settings, Endianness : Big
Codec ID : A_AC3
Duration : 1 h 28 min
Bit rate mode : Constant
Bit rate : 384 kb/s
Channel(s) : 2 channels
Channel positions : Front: L R
Sampling rate : 48.0 kHz
Frame rate : 31.250 FPS (1536 SPF)
Bit depth : 16 bits
Compression mode : Lossy
Stream size : 243 MiB (5%)
Title : AC3 (Двухголосый) Премьер Видео
Language : Russian
Service kind : Complete Main
Default : No
Forced : No

Audio #3
ID : 4
Format : AC-3
Format/Info : Audio Coding 3
Format settings, Endianness : Big
Codec ID : A_AC3
Duration : 1 h 28 min
Bit rate mode : Constant
Bit rate : 384 kb/s
Channel(s) : 2 channels
Channel positions : Front: L R
Sampling rate : 48.0 kHz
Frame rate : 31.250 FPS (1536 SPF)
Bit depth : 16 bits
Compression mode : Lossy
Stream size : 243 MiB (5%)
Title : AC3 (Одноголосый) А. Михалёв
Language : Russian
Service kind : Complete Main
Default : No
Forced : No

Audio #4
ID : 5
Format : AC-3
Format/Info : Audio Coding 3
Format settings, Endianness : Big
Codec ID : A_AC3
Duration : 1 h 28 min
Bit rate mode : Constant
Bit rate : 384 kb/s
Channel(s) : 2 channels
Channel positions : Front: L R
Sampling rate : 48.0 kHz
Frame rate : 31.250 FPS (1536 SPF)
Bit depth : 16 bits
Compression mode : Lossy
Stream size : 243 MiB (5%)
Title : AC3 (Одноголосый) Ю. Живов
Language : Russian
Service kind : Complete Main
Default : No
Forced : No

Audio #5
ID : 6
Format : AC-3
Format/Info : Audio Coding 3
Format settings, Endianness : Big
Codec ID : A_AC3
Duration : 1 h 28 min
Bit rate mode : Constant
Bit rate : 640 kb/s
Channel(s) : 4 channels
Channel positions : Front: L C R, Back: C
Sampling rate : 48.0 kHz
Frame rate : 31.250 FPS (1536 SPF)
Bit depth : 16 bits
Compression mode : Lossy
Stream size : 405 MiB (8%)
Title : AC3 (Оригинал)
Language : English
Service kind : Complete Main
Default : No
Forced : No

Text #1
ID : 7
Format : UTF-8
Codec ID : S_TEXT/UTF8
Codec ID/Info : UTF-8 Plain Text
Duration : 1 h 23 min
Bit rate : 55 b/s
Count of elements : 787
Stream size : 33.7 KiB (0%)
Title : Русские
Language : Russian
Default : No
Forced : No

Text #2
ID : 8
Format : UTF-8
Codec ID : S_TEXT/UTF8
Codec ID/Info : UTF-8 Plain Text
Duration : 1 h 21 min
Bit rate : 50 b/s
Count of elements : 865
Stream size : 30.2 KiB (0%)
Title : Английские
Language : English
Default : No
Forced : No

Menu
00:00:00.000 : :Глава 1
00:04:57.797 : :Глава 2
00:06:51.160 : :Глава 3
00:09:33.405 : :Глава 4
00:18:39.868 : :Глава 5
00:21:46.888 : :Глава 6
00:26:33.216 : :Глава 7
00:35:22.203 : :Глава 8
00:43:25.143 : :Глава 9
00:51:25.123 : :Глава 10
00:52:48.874 : :Глава 11
01:00:13.109 : :Глава 12
01:06:49.255 : :Глава 13
01:12:16.497 : :Глава 14
01:15:38.575 : :Глава 15
01:20:19.731 : :Глава 16
01:23:08.274 : :Глава 17
01:23:56.990 : :Глава 18
01:28:32.307 : :Глава 19
Загрузка...Cкриншот1 Горячие головы 2 / Hot Shots! Part Deux (1993) BDRip 1080p [HEVC] 10 bit от CthulhuЗагрузка...Cкриншот2 Горячие головы 2 / Hot Shots! Part Deux (1993) BDRip 1080p [HEVC] 10 bit от CthulhuЗагрузка...Cкриншот3 Горячие головы 2 / Hot Shots! Part Deux (1993) BDRip 1080p [HEVC] 10 bit от CthulhuЗагрузка...Cкриншот4 Горячие головы 2 / Hot Shots! Part Deux (1993) BDRip 1080p [HEVC] 10 bit от Cthulhu
Торрент🧲 Магнет

Рейтинги КП и IMDB, кнопки "Позвать в чате" и "Спасибо", а также мультитрекерная статистика сидов и пиров доступны только зарегистрированным/авторизованным пользователям!

Файлы: 1
  • Hot Shots! Part Deux (1993) BDRip 1080p [HEVC] 10Bit.mkv   5.23 ГБ
Поблагодарили: 2
davidoff_k4, torrentzulu
Cthulhu
0270005.23 ГБ

Добавление нового комментария

Добавление комментариев доступно только зарегистрированным/авторизованным пользователям.