💬 Мини-чат

Убедительная просьба не обсуждать тут политику.
AdminЛёшикоБэст, вроде потихоньку идёт. Подождем, если не докачается, то встану.
AdminЛёшикоБэст, перекачайте торрент, а то в профиле не отображается ждете или уже нет
ЛёшикоБэстРаздайте, пожалуйста, Неудержимые / The Expendables (2010) [Theatrical Cut] BDRip 1080p [HEVC] 10 bit от Spartanec1308
OldGamerДа, есть.
ЛёшикоБэстДоброго вечера) Скажите пожалуйста, есть ли в планах сделать релиз дилогии "Зорро" с Антонио Бандерасом?
HANNIBALAdmin, 👍
AdminГоро, встал
ГороРаздайте, пожалуйста, Хищники / Predators (2010) BDRip 1080p [HEVC] 10 bit от HANNIBAL
AdminHANNIBAL, привет. Не помню за сколько брал, но продление в этот раз обошлось примерно в $14 со всякими комиссиями. А аренда VDS обходится примерно в $30-35 за год. Не исключено, что всё это подорожает. Пока что пожертвования с трудом покрывают расходы. Иногда если требуется и со своего кармана оплачиваю, не страшно. Прорвемся.
HANNIBALсколько сейчас стоит
HANNIBALAdmin, ПРИВЕТ
AdminНаконец-то получил банковскую карту. Продлил доменное имя (адрес сайта) на год.
  • ivan_1965
Отправка сообщений доступна только зарегистрированным/авторизованным пользователям.
Онлайн (за 10 мин.): 1

Кавалерия / 12 Strong (2018) [iTunes] BDRip 1080p [HEVC] 10 bit от HANNIBAL

HEVC
10 bit
Обложка Кавалерия / 12 Strong (2018) [iTunes] BDRip 1080p [HEVC] 10 bit от HANNIBAL Год: 2018
Страна: США
Студия: Alcon Entertainment, Lionsgate
Жанр: Боевик, Драма, Военный, История
Продолжительность: 02:09:51

Режиссер: Николай Фьюлси
В ролях: Крис Хемсворт, Майкл Шеннон, Уильям Фихтнер, Эльза Патаки, Тейлор Шеридан, Джофф Стульц, Майкл Пенья, Роб Риггл, Треванте Роудс, Джек Кеси

Описание: Их бросили в пекло после 11 сентября, когда мир раскололся на «до» и «после». Именно им предстояло на передовой бороться с врагом, не знающим пощады. На чужой земле преимущество у всадников — этому их научили нежданные союзники. Вместе они попытаются удержать мир от погружения в хаос.


Видео: 1920x800, 5498 Kbps
Аудио: AC3, 6 ch, 384 Kbps - РусскийРусский, Дублированный (iTunes)
Субтитры: Русские (forced)

Медиаинфо
General
Unique ID : 88177373484572699434482156191015936085 (0x4256582AAC3DF2273BA5CA2C8E2AA055)
Complete name : E:\12 Strong (2018) BDRip 1080p [HEVC] 10bit.mkv
Format : Matroska
Format version : Version 4 / Version 2
File size : 5.37 GiB
Duration : 2 h 10 min
Overall bit rate : 5 882 kb/s
Movie name : 12.Strong.2018.2160p.BluRay.x264.8bit.SDR.Master5
Encoded date : UTC 2018-08-03 19:26:48
Writing application : mkvmerge v20.0.0 ('I Am The Sun') 64-bit
Writing library : libebml v1.3.5 + libmatroska v1.4.8 / Lavf57.71.100
Cover : Yes
Attachments : cover.jpg
ENCODING_INFO : MATROSKA,WEBM > MKV 1080p 10-bit / H264 > X265 VBR-2P 5500kbps Medium / AC3 > AC3 CBR 384kbps

Video
ID : 1
Format : HEVC
Format/Info : High Efficiency Video Coding
Format profile : Main 10@L5.1@Main
Codec ID : V_MPEGH/ISO/HEVC
Duration : 2 h 10 min
Bit rate : 5 498 kb/s
Width : 1 920 pixels
Height : 800 pixels
Display aspect ratio : 2.40:1
Frame rate mode : Constant
Frame rate : 23.976 (24000/1001) FPS
Color space : YUV
Chroma subsampling : 4:2:0
Bit depth : 10 bits
Bits/(Pixel*Frame) : 0.149
Stream size : 5.02 GiB (93%)
Title : 12.Strong.2018.2160p.BluRay.x264.8bit.SDR.Master5
Writing library : x265 2.8+19-bcdc610cf5f0:[Windows][GCC 7.3.0][64 bit] 10bit
Encoding settings : cpuid=1049583 / frame-threads=5 / numa-pools=4 / wpp / no-pmode / no-pme / no-psnr / no-ssim / log-level=3 / input-csp=1 / input-res=1920x800 / interlace=0 / total-frames=0 / level-idc=51 / high-tier=1 / uhd-bd=0 / ref=3 / allow-non-conformance / no-repeat-headers / annexb / no-aud / no-hrd / info / hash=0 / no-temporal-layers / open-gop / min-keyint=24 / keyint=240 / gop-lookahead=0 / bframes=6 / b-adapt=2 / b-pyramid / bframe-bias=0 / rc-lookahead=20 / lookahead-slices=5 / scenecut=40 / radl=0 / no-intra-refresh / ctu=64 / min-cu-size=8 / no-rect / no-amp / max-tu-size=32 / tu-inter-depth=1 / tu-intra-depth=1 / limit-tu=0 / rdoq-level=0 / dynamic-rd=0.00 / no-ssim-rd / signhide / no-tskip / nr-intra=0 / nr-inter=0 / no-constrained-intra / strong-intra-smoothing / max-merge=2 / limit-refs=3 / no-limit-modes / me=1 / subme=7 / merange=57 / temporal-mvp / weightp / no-weightb / no-analyze-src-pics / deblock=-2:-2 / sao / no-sao-non-deblock / rd=3 / no-early-skip / rskip / no-fast-intra / no-tskip-fast / no-cu-lossless / no-b-intra / no-splitrd-skip / rdpenalty=0 / psy-rd=2.00 / psy-rdoq=0.00 / no-rd-refine / no-lossless / cbqpoffs=0 / crqpoffs=0 / rc=abr / bitrate=5500 / qcomp=0.60 / qpstep=4 / stats-write=0 / stats-read=1 / cplxblur=20.0 / qblur=0.5 / ipratio=1.40 / pbratio=1.30 / aq-mode=1 / aq-strength=1.00 / cutree / zone-count=0 / no-strict-cbr / qg-size=32 / no-rc-grain / qpmax=69 / qpmin=0 / no-const-vbv / sar=1 / overscan=0 / videoformat=5 / range=0 / colorprim=1 / transfer=1 / colormatrix=1 / chromaloc=0 / display-window=0 / max-cll=0,0 / min-luma=0 / max-luma=1023 / log2-max-poc-lsb=8 / vui-timing-info / vui-hrd-info / slices=1 / no-opt-qp-pps / no-opt-ref-list-length-pps / no-multi-pass-opt-rps / scenecut-bias=0.05 / no-opt-cu-delta-qp / no-aq-motion / no-hdr / no-hdr-opt / no-dhdr10-opt / no-idr-recovery-sei / analysis-reuse-level=5 / scale-factor=0 / refine-intra=0 / refine-inter=0 / refine-mv=0 / no-limit-sao / ctu-info=0 / no-lowpass-dct / refine-mv-type=0 / copy-pic=1 / max-ausize-factor=1.0 / no-dynamic-refine / no-single-sei
Language : English
Default : Yes
Forced : No
Color range : Limited
Color primaries : BT.709
Transfer characteristics : BT.709
Matrix coefficients : BT.709

Audio
ID : 2
Format : AC-3
Format/Info : Audio Coding 3
Codec ID : A_AC3
Duration : 2 h 10 min
Bit rate mode : Constant
Bit rate : 384 kb/s
Channel(s) : 6 channels
Channel positions : Front: L C R, Side: L R, LFE
Sampling rate : 48.0 kHz
Frame rate : 31.250 FPS (1536 SPF)
Bit depth : 16 bits
Compression mode : Lossy
Stream size : 357 MiB (7%)
Title : Dub
Language : Russian
Service kind : Complete Main
Default : Yes
Forced : Yes

Text
ID : 3
Format : UTF-8
Codec ID : S_TEXT/UTF8
Codec ID/Info : UTF-8 Plain Text
Duration : 2 h 0 min
Bit rate : 5 b/s
Count of elements : 79
Stream size : 4.61 KiB (0%)
Title : Forced
Language : Russian
Default : Yes
Forced : Yes

Menu
00:00:00.000 : :Chapter 1
00:11:37.875 : :Chapter 2
00:22:14.416 : :Chapter 3
00:32:49.124 : :Chapter 4
00:44:23.166 : :Chapter 5
00:56:09.624 : :Chapter 6
01:06:01.708 : :Chapter 7
01:13:39.207 : :Chapter 8
01:24:07.458 : :Chapter 9
01:34:04.541 : :Chapter 10
01:43:15.249 : :Chapter 11
01:57:15.207 : :Chapter 12
Загрузка...Cкриншот1 Кавалерия / 12 Strong (2018) [iTunes] BDRip 1080p [HEVC] 10 bit от HANNIBALЗагрузка...Cкриншот2 Кавалерия / 12 Strong (2018) [iTunes] BDRip 1080p [HEVC] 10 bit от HANNIBALЗагрузка...Cкриншот3 Кавалерия / 12 Strong (2018) [iTunes] BDRip 1080p [HEVC] 10 bit от HANNIBALЗагрузка...Cкриншот4 Кавалерия / 12 Strong (2018) [iTunes] BDRip 1080p [HEVC] 10 bit от HANNIBAL
Сэмпл Торрент🧲 Магнет

Рейтинги КП и IMDB, кнопки "Позвать в чате" и "Спасибо", а также мультитрекерная статистика доступны только зарегистрированным/авторизованным пользователям!

Файлы: 1
  • 12 Strong (2018) BDRip 1080p [HEVC] 10bit.mkv   5.37 ГБ
Поблагодарили: 3
brukvalub, Rezident, SAVOYAR
HANNIBAL
1324025.37 ГБ

Добавление нового комментария

Добавление комментариев доступно только зарегистрированным/авторизованным пользователям.
Аватар не указан
  VIKING  
И умудрились же Вы найти локализованную версию под немецкую аудиторию (все надписи в фильме на немецком). Большинство переведено не верно. Пришлось качать "чистую" Американскую версию и по родным надписям переводить)