Регистрация / Смена пароля

💬 Мини-чат

Адрес сайта поменялся с hevc-club.video на rips.club. Новый адрес анонсера - http://rips.club:2710/announce
ADVOKAT69rodina_45, буду перекодировать!
rodina_45Раздайте, пожалуйста, Царевна-лягушка (1954) BDRip 1080p [HEVC] 10 bit от ADVOKAT69
OldGamerДа всегда пожалуйста
UndervestСообщение удалено (удалил: Undervest)
StarLordOldGamer, очень жаль... Возможно сам возьмусь)
OldGamerStarLord, в планах такого нету :)
StarLordOldGamer, еще бы "Бомжа с дробовиком" в придачу к "Мачете" =))
warner98Раздайте, пожалуйста, Кошмар на улице Вязов / A Nightmare on Elm Street (2010) BDRip 1080p [HEVC] 10 bit от Cthulhu
VISРаздайте, пожалуйста, Доспехи Бога / Lung hing foo dai (1986) BDRip 1080p [HEVC] 10 bit от joker63
  • Admin
  • Rezident
Отправка сообщений доступна только зарегистрированным/авторизованным пользователям.
Онлайн (за 10 мин.): 2

Доктор Голливуд / Doc Hollywood (1991) BDRip 1080p [HEVC] 10 bit от OldGamer (RG RIPS CLUB)

HEVC
10 bit
Обложка Доктор Голливуд / Doc Hollywood (1991) BDRip 1080p [HEVC] 10 bit от OldGamer (RG RIPS CLUB) Год: 1991
Страна: США
Студия: Warner Bros. Pictures
Жанр: Драма, Мелодрама, Комедия
Продолжительность: 01:43:22

Режиссер: Майкл Кейтон-Джонс
В ролях: Майкл Дж. Фокс, Джули Уорнер, Барнард Хьюз, Вуди Харрельсон, Бриджит Фонда, Фрэнсис Стернхаген, Джордж Хэмилтон, Дэвид Огден Стайерз, Мел Уинклер, Хелен Мартин

Описание: Судьба подложила ему свинью. Бенджи Стоун был подающим надежды пластическим хирургом, ехал в Голливуд, и вдруг — авария на главной улице какого-то захолустного городка. Кто виноват? Конечно, Бенджи. Полиция определяет нарушителю наказание: 32 часа принудительных работ терапевтом в местной больнице. Нормально? Доктор Голливуд приступает к работе. И самое дикое — она ему нравится. Потому что рядом — прехорошенькая провинциалочка.


Видео: 1920x1080 (16:9), 10,4 Мбит/сек, HEVC (Main10@L.4.1@High)
Аудио1: AC3, 2 ch, 192 Kbps - РусскийРусский, Дублированный (Варус Видео)
Аудио2: AC3, 2 ch, 192 Kbps - РусскийРусский, Многоголосый (DVD/CTC)
Аудио3: AC3, 2 ch, 192 Kbps - РусскийРусский, Многоголосый (Россия-1)
Аудио4: AC3, 2 ch, 192 Kbps - РусскийРусский, Многоголосый (ОРТ)
Аудио5: AC3, 2 ch, 192 Kbps - РусскийРусский, Двухголосый (НТВ)
Аудио6: AC3, 2 ch, 192 Kbps - РусскийРусский, Авторский (Алексей Михалёв)
Аудио7: AC3, 2 ch, 192 Kbps - РусскийРусский, Авторский (Юрий Живов)
Аудио8: AC3, 6 ch, 640 Kbps - EnglishEnglish, Original
Субтитры: English full (SRT)

Как за пару секунд удалить ненужные аудиодорожки и субтитры (Внимание! После удаления вы не сможете поддержать раздачу)

Лог (x265 info)
x265 [info]: frame I: 622, Avg QP:18.03 kb/s: 23895.40
x265 [info]: frame P: 27246, Avg QP:19.32 kb/s: 17893.69
x265 [info]: frame B: 120836, Avg QP:21.09 kb/s: 8630.10
x265 [info]: Weighted P-Frames: Y:7.1% UV:6.1%
x265 [info]: Weighted B-Frames: Y:6.5% UV:5.4%
x265 [info]: consecutive B-frames: 1.2% 2.2% 3.3% 25.5% 10.1% 48.2% 4.5% 2.9% 0.9% 0.4% 0.3% 0.4% 0.1%
x265 [info]: encoded 148704 frames in 133566.82s (1.11 fps), 10391.26 kb/s, Avg QP:20.76
Медиаинфо
Формат : Matroska
Версия формата : Version 4
Размер файла : 8,94 Гбайт
Продолжительность : 1 ч. 43 м.
Общий поток : 12,4 Мбит/сек
Название фильма : Доктор.Голливуд.Doc.Hollywood.1991.BDRip-HEVC.1080p
Дата кодирования : UTC 2020-10-10 14:18:22
Программа кодирования : mkvmerge v51.0.0 ('I Wish') 64-bit
Библиотека кодирования : libebml v1.4.0 + libmatroska v1.6.2
Attachments : Doc Hollywood B004N796H4_chapters.xml

Видео
Идентификатор : 1
Формат : HEVC
Формат/Информация : High Efficiency Video Coding
Профиль формата : Main 10@L4.1@High
Идентификатор кодека : V_MPEGH/ISO/HEVC
Продолжительность : 1 ч. 43 м.
Битрейт : 10,4 Мбит/сек
Ширина : 1 920 пикселей
Высота : 1 080 пикселей
Соотношение сторон : 16:9
Режим частоты кадров : Постоянный
Частота кадров : 23,976 (24000/1001) кадра/сек
Цветовое пространство : YUV
Субдискретизация насыщенности : 4:2:0
Битовая глубина : 10 бит
Бит/(Пиксели*Кадры) : 0.209
Размер потока : 7,50 Гбайт (84%)
Заголовок : Doc Hollywood / Rip by OldGamer
Библиотека кодирования : x265 3.4+4-g3ae3d7116:[Windows][GCC 10.2.0][64 bit] 10bit
Настройки программы : cpuid=1111039 / frame-threads=3 / numa-pools=8 / wpp / no-pmode / no-pme / no-psnr / no-ssim / log-level=2 / input-csp=1 / input-res=1920x1080 / interlace=0 / total-frames=148704 / level-idc=41 / high-tier=1 / uhd-bd=0 / ref=5 / no-allow-non-conformance / no-repeat-headers / annexb / no-aud / no-hrd / info / hash=0 / no-temporal-layers / open-gop / min-keyint=23 / keyint=240 / gop-lookahead=0 / bframes=12 / b-adapt=2 / b-pyramid / bframe-bias=0 / rc-lookahead=60 / lookahead-slices=0 / scenecut=40 / hist-scenecut=0 / radl=0 / no-splice / no-intra-refresh / ctu=64 / min-cu-size=8 / rect / amp / max-tu-size=32 / tu-inter-depth=4 / tu-intra-depth=4 / limit-tu=1 / rdoq-level=2 / dynamic-rd=0.00 / no-ssim-rd / signhide / no-tskip / nr-intra=0 / nr-inter=0 / no-constrained-intra / no-strong-intra-smoothing / max-merge=5 / limit-refs=3 / no-limit-modes / me=3 / subme=7 / merange=57 / temporal-mvp / no-frame-dup / no-hme / weightp / weightb / no-analyze-src-pics / deblock=-3:-3 / no-sao / no-sao-non-deblock / rd=6 / selective-sao=0 / no-early-skip / rskip / no-fast-intra / no-tskip-fast / no-cu-lossless / b-intra / no-splitrd-skip / rdpenalty=0 / psy-rd=2.00 / psy-rdoq=1.00 / no-rd-refine / no-lossless / cbqpoffs=0 / crqpoffs=0 / rc=crf / crf=19.8 / qcomp=0.60 / qpstep=4 / stats-write=0 / stats-read=0 / vbv-maxrate=50000 / vbv-bufsize=50000 / vbv-init=0.9 / crf-max=0.0 / crf-min=0.0 / ipratio=1.40 / pbratio=1.30 / aq-mode=1 / aq-strength=1.00 / no-cutree / zone-count=1 / zones: / start-frame=144305 / end-frame=148685 / qp=36 / no-strict-cbr / qg-size=32 / no-rc-grain / qpmax=69 / qpmin=0 / no-const-vbv / sar=1 / overscan=0 / videoformat=5 / range=0 / colorprim=2 / transfer=2 / colormatrix=2 / chromaloc=0 / display-window=0 / cll=0,0 / min-luma=0 / max-luma=1023 / log2-max-poc-lsb=8 / vui-timing-info / vui-hrd-info / slices=1 / no-opt-qp-pps / no-opt-ref-list-length-pps / no-multi-pass-opt-rps / scenecut-bias=0.00 / hist-threshold=0.01 / no-opt-cu-delta-qp / no-aq-motion / no-hdr10 / no-hdr10-opt / no-dhdr10-opt / no-idr-recovery-sei / analysis-reuse-level=0 / analysis-save-reuse-level=0 / analysis-load-reuse-level=0 / scale-factor=0 / refine-intra=0 / refine-inter=0 / refine-mv=1 / refine-ctu-distortion=0 / no-limit-sao / ctu-info=0 / no-lowpass-dct / refine-analysis-type=0 / copy-pic=1 / max-ausize-factor=1.0 / no-dynamic-refine / no-single-sei / no-hevc-aq / no-svt / no-field / qp-adaptation-range=1.00 / no-scenecut-aware-qpconformance-window-offsets / right=0 / bottom=0 / decoder-max-rate=0
Язык : English
Default : Да
Forced : Нет

Аудио #1
Идентификатор : 2
Формат : AC-3
Формат/Информация : Audio Coding 3
Коммерческое название : Dolby Digital
Идентификатор кодека : A_AC3
Продолжительность : 1 ч. 43 м.
Вид битрейта : Постоянный
Битрейт : 192 Кбит/сек
Каналы : 2 канала
Channel layout : L R
Частота : 48,0 КГц
Частота кадров : 31,250 кадров/сек (1536 SPF)
Метод сжатия : С потерями
Задержка видео : 16 мс.
Размер потока : 142 Мбайт (2%)
Заголовок : DUB (Варус Видео)
Язык : Russian
Service kind : Complete Main
Default : Да
Forced : Нет

Аудио #2
Идентификатор : 3
Формат : AC-3
Формат/Информация : Audio Coding 3
Коммерческое название : Dolby Digital
Идентификатор кодека : A_AC3
Продолжительность : 1 ч. 43 м.
Вид битрейта : Постоянный
Битрейт : 192 Кбит/сек
Каналы : 2 канала
Channel layout : L R
Частота : 48,0 КГц
Частота кадров : 31,250 кадров/сек (1536 SPF)
Метод сжатия : С потерями
Размер потока : 142 Мбайт (2%)
Заголовок : MVO (DVD/CTC)
Язык : Russian
Service kind : Complete Main
Default : Нет
Forced : Нет

Аудио #3
Идентификатор : 4
Формат : AC-3
Формат/Информация : Audio Coding 3
Коммерческое название : Dolby Digital
Идентификатор кодека : A_AC3
Продолжительность : 1 ч. 43 м.
Вид битрейта : Постоянный
Битрейт : 192 Кбит/сек
Каналы : 2 канала
Channel layout : L R
Частота : 48,0 КГц
Частота кадров : 31,250 кадров/сек (1536 SPF)
Метод сжатия : С потерями
Задержка видео : 16 мс.
Размер потока : 142 Мбайт (2%)
Заголовок : MVO (Россия-1)
Язык : Russian
Service kind : Complete Main
Default : Нет
Forced : Нет

Аудио #4
Идентификатор : 5
Формат : AC-3
Формат/Информация : Audio Coding 3
Коммерческое название : Dolby Digital
Идентификатор кодека : A_AC3
Продолжительность : 1 ч. 43 м.
Вид битрейта : Постоянный
Битрейт : 192 Кбит/сек
Каналы : 2 канала
Channel layout : L R
Частота : 48,0 КГц
Частота кадров : 31,250 кадров/сек (1536 SPF)
Метод сжатия : С потерями
Размер потока : 142 Мбайт (2%)
Заголовок : MVO (ОРТ)
Язык : Russian
Service kind : Complete Main
Default : Нет
Forced : Нет

Аудио #5
Идентификатор : 6
Формат : AC-3
Формат/Информация : Audio Coding 3
Коммерческое название : Dolby Digital
Идентификатор кодека : A_AC3
Продолжительность : 1 ч. 43 м.
Вид битрейта : Постоянный
Битрейт : 192 Кбит/сек
Каналы : 2 канала
Channel layout : L R
Частота : 48,0 КГц
Частота кадров : 31,250 кадров/сек (1536 SPF)
Метод сжатия : С потерями
Размер потока : 142 Мбайт (2%)
Заголовок : DVO (НТВ)
Язык : Russian
Service kind : Complete Main
Default : Нет
Forced : Нет

Аудио #6
Идентификатор : 7
Формат : AC-3
Формат/Информация : Audio Coding 3
Коммерческое название : Dolby Digital
Идентификатор кодека : A_AC3
Продолжительность : 1 ч. 43 м.
Вид битрейта : Постоянный
Битрейт : 192 Кбит/сек
Каналы : 2 канала
Channel layout : L R
Частота : 48,0 КГц
Частота кадров : 31,250 кадров/сек (1536 SPF)
Метод сжатия : С потерями
Размер потока : 142 Мбайт (2%)
Заголовок : AVO (Алексей Михалёв)
Язык : Russian
Service kind : Complete Main
Default : Нет
Forced : Нет

Аудио #7
Идентификатор : 8
Формат : AC-3
Формат/Информация : Audio Coding 3
Коммерческое название : Dolby Digital
Идентификатор кодека : A_AC3
Продолжительность : 1 ч. 43 м.
Вид битрейта : Постоянный
Битрейт : 192 Кбит/сек
Каналы : 2 канала
Channel layout : L R
Частота : 48,0 КГц
Частота кадров : 31,250 кадров/сек (1536 SPF)
Метод сжатия : С потерями
Размер потока : 142 Мбайт (2%)
Заголовок : AVO (Юрий Живов)
Язык : Russian
Service kind : Complete Main
Default : Нет
Forced : Нет

Аудио #8
Идентификатор : 9
Формат : AC-3
Формат/Информация : Audio Coding 3
Коммерческое название : Dolby Digital
Идентификатор кодека : A_AC3
Продолжительность : 1 ч. 43 м.
Вид битрейта : Постоянный
Битрейт : 640 Кбит/сек
Каналы : 2 канала
Channel layout : L R
Частота : 48,0 КГц
Частота кадров : 31,250 кадров/сек (1536 SPF)
Метод сжатия : С потерями
Размер потока : 473 Мбайт (5%)
Язык : English
Service kind : Complete Main
Default : Нет
Forced : Нет

Текст
Идентификатор : 10
Формат : UTF-8
Идентификатор кодека : S_TEXT/UTF8
Идентификатор кодека/Информация : UTF-8 Plain Text
Продолжительность : 1 ч. 40 м.
Битрейт : 69 бит/сек
Count of elements : 2104
Размер потока : 51,1 Кбайт (0%)
Язык : English
Default : Нет
Forced : Нет

Меню
00:00:00.000 : en:Chapter 1
00:00:14.848 : en:Chapter 2
00:03:15.945 : en:Chapter 3
00:06:30.973 : en:Chapter 4
00:09:02.917 : en:Chapter 5
00:10:27.168 : en:Chapter 6
00:12:43.804 : en:Chapter 7
00:15:34.642 : en:Chapter 8
00:17:57.785 : en:Chapter 9
00:19:07.020 : en:Chapter 10
00:21:50.434 : en:Chapter 11
00:24:28.758 : en:Chapter 12
00:27:49.542 : en:Chapter 13
00:31:16.207 : en:Chapter 14
00:33:11.364 : en:Chapter 15
00:37:59.026 : en:Chapter 16
00:41:44.251 : en:Chapter 17
00:45:28.809 : en:Chapter 18
00:46:50.140 : en:Chapter 19
00:49:28.215 : en:Chapter 20
00:53:17.861 : en:Chapter 21
00:56:41.773 : en:Chapter 22
01:00:15.862 : en:Chapter 23
01:02:41.883 : en:Chapter 24
01:04:39.917 : en:Chapter 25
01:11:22.611 : en:Chapter 26
01:16:51.398 : en:Chapter 27
01:21:00.188 : en:Chapter 28
01:24:04.789 : en:Chapter 29
01:28:22.171 : en:Chapter 30
01:30:58.202 : en:Chapter 31
01:31:58.179 : en:Chapter 32
01:33:37.820 : en:Chapter 33
01:35:38.899 : en:Chapter 34
01:38:38.746 : en:Chapter 35
01:39:57.282 : en:Chapter 36
Загрузка...Cкриншот1 Доктор Голливуд / Doc Hollywood (1991) BDRip 1080p [HEVC] 10 bit от OldGamer (RG RIPS CLUB)Загрузка...Cкриншот2 Доктор Голливуд / Doc Hollywood (1991) BDRip 1080p [HEVC] 10 bit от OldGamer (RG RIPS CLUB)Загрузка...Cкриншот3 Доктор Голливуд / Doc Hollywood (1991) BDRip 1080p [HEVC] 10 bit от OldGamer (RG RIPS CLUB)Загрузка...Cкриншот4 Доктор Голливуд / Doc Hollywood (1991) BDRip 1080p [HEVC] 10 bit от OldGamer (RG RIPS CLUB)
Сэмпл Торрент🧲 Магнет

Раздача обновлена!
Перекодировано. Добавлена оригинальная дорожка и английские субтитры.

Рейтинги КП и IMDB, кнопки "Позвать в чате" и "Спасибо", а также мультитрекерная статистика сидов и пиров доступны только зарегистрированным/авторизованным пользователям!

Файлы: 1
  • Доктор.Голливуд.Doc.Hollywood.1991.BDRip-HEVC.1080p.mkv   8.94 ГБ
Поблагодарили: 2
makss333, StarLord
OldGamer
120308.94 ГБ

Добавление нового комментария

Добавление комментариев доступно только зарегистрированным/авторизованным пользователям.
Аватар maksim_mudakov
  maksim_mudakov  
На втором скрине тема сисочек раскрыта.