💬 Мини-чат

Для тех, кому интересен процесс переделки сайта - https://rips.club/changelog.html (обновлен 22.02.2024)
OldGamerz1M4p9i0, и этот релиз скачался
Adminatomicheart, встал, но у Вас в профиле не видно. Вам бы перекачать.
OldGamerz1M4p9i0, Хан Соло скачался, но релиз, который был на руторе, там аудиодорожек меньше, чем тут, а видеоряд тот же. Попробуйте оттуда, я пока что сидирую.
OldGamerХан Соло откуда-то по чайной ложке в час скачивается, за сутки 50%, наблюдаем-с дальше
Adminatomicheart, завтра посмотрю, он у меня должен быть.
atomicheartРаздайте, пожалуйста, Тихое место: Дилогия / A Quiet Place: Dilogy (2018-2020) UHD-BDRip 1080p [HEVC] 10 bit [HDR] от Mr. Fox
z1M4p9i0Раздайте, пожалуйста, Хан Соло: Звёздные войны. Истории / Solo: A Star Wars Story (2018) [Локализованная версия] BDRip 1080p [HEVC] 10 bit от Cthulhu
z1M4p9i0Раздайте, пожалуйста, Терминатор: Тёмные судьбы / Terminator: Dark Fate (2019) [iTunes] UHD-BDRip 1440p [HEVC] 10 bit от HANNIBAL
OldGamerKeynol, честно говоря, пока что не планировалось, так как у нас есть отличный рип этого фильма
KeynolПриветствую! А можно сделать HEVC 10 bit на Трон Наследие Hybrid ? там файл на 31 гиг :-( на рутрекере. Хороший, но очень массивный..
  • InSpector
  • natali
Отправка сообщений доступна только зарегистрированным/авторизованным пользователям.
Онлайн (за 10 мин.): 2

Аполлон 13 / Apollo 13 (1995) BDRip 1080p [HEVC] 10 bit от Cthulhu

HEVC
10 bit
Обложка Аполлон 13 / Apollo 13 (1995) BDRip 1080p [HEVC] 10 bit от Cthulhu Год: 1995
Страна: США
Жанр: Драма, Приключения, История
Продолжительность: 02:19:50

Режиссер: Рон Ховард
В ролях: Том Хэнкс, Билл Пэкстон, Кевин Бейкон, Гэри Синиз, Эд Харрис, Кэтлин Куинлен, Мэри Кейт Шеллхардт, Эмили Энн Ллойд, Мико Хьюз, Макс Эллиотт Слэйд

Описание: Фильм о неудачной лунной миссии «Аполлон-13» — одном из самых драматических моментов освоения космоса. В 1970 «Аполлон-13» должен был стать третьим космическим кораблём, который доставил бы астронавтов на Луну. Однако уже на подлёте к цели на корабле произошла серьёзная авария, которая не только поставила крест на высадке, но и создала угрозу жизни экипажа.


Видео: 1918x816, 6456 Kbps
Аудио1: AC3, 6 ch, 448 Kbps - РусскийРусский, Дублированный (Лицензия)
Аудио2: AC3, 6 ch, 448 Kbps - АнглийскийАнглийский, Оригинал
Аудио3: DTS, 6 ch, 768 Kbps - РусскийРусский, Дублированный (Лицензия) - отдельным файлом
Аудио4: AC3, 2 ch, 192 Kbps - РусскийРусский, Многоголосый (ОРТ) - отдельным файлом
Аудио5: AC3, 2 ch, 192 Kbps - РусскийРусский, Многоголосый (Премьер Видео) - отдельным файлом
Аудио6: AC3, 2 ch, 192 Kbps - РусскийРусский, Многоголосый (СТС) - отдельным файлом
Субтитры: Русские, английские

Как за пару секунд удалить ненужные аудиодорожки и субтитры (Внимание! После удаления вы не сможете поддержать раздачу)

Медиаинфо
General
Unique ID : 249683650344070974311462926549070254067 (0xBBD75266DE749B9297C5CA2A07AA0FF3)
Complete name : S:\HEVC\Apollo 13\Apollo 13 (1995) BDRip 1080p [HEVC] 10Bit.mkv
Format : Matroska
Format version : Version 4 / Version 2
File size : 7.18 GiB
Duration : 2 h 19 min
Overall bit rate : 7 354 kb/s
Movie name : rip_by_Cthulhu
Encoded date : UTC 2017-12-19 16:42:24
Writing application : mkvmerge v18.0.0 ('Apricity') 64-bit
Writing library : libebml v1.3.5 + libmatroska v1.4.8
Cover : Yes
Attachments : cover.jpg / cover.jpg

Video
ID : 1
Format : HEVC
Format/Info : High Efficiency Video Coding
Format profile : Main 10@L4.1@High
Codec ID : V_MPEGH/ISO/HEVC
Duration : 2 h 19 min
Bit rate : 6 456 kb/s
Width : 1 918 pixels
Height : 816 pixels
Display aspect ratio : 2.35:1
Frame rate mode : Constant
Frame rate : 23.976 (24000/1001) FPS
Color space : YUV
Chroma subsampling : 4:2:0
Bit depth : 10 bits
Bits/(Pixel*Frame) : 0.172
Stream size : 6.31 GiB (88%)
Writing library : x265 2.6+8-fc0570b8d8f9:[Windows][GCC 7.1.0][64 bit] 10bit
Encoding settings : cpuid=1050111 / frame-threads=5 / numa-pools=4 / wpp / no-pmode / no-pme / no-psnr / no-ssim / log-level=3 / input-csp=1 / input-res=1918x816 / interlace=0 / total-frames=0 / level-idc=41 / high-tier=1 / uhd-bd=0 / ref=5 / no-allow-non-conformance / no-repeat-headers / annexb / no-aud / no-hrd / info / hash=0 / no-temporal-layers / open-gop / min-keyint=24 / keyint=240 / gop-lookahead=0 / bframes=10 / b-adapt=2 / b-pyramid / bframe-bias=0 / rc-lookahead=40 / lookahead-slices=5 / scenecut=40 / no-intra-refresh / ctu=64 / min-cu-size=8 / no-rect / no-amp / max-tu-size=32 / tu-inter-depth=2 / tu-intra-depth=2 / limit-tu=0 / rdoq-level=0 / dynamic-rd=0.00 / no-ssim-rd / signhide / no-tskip / nr-intra=0 / nr-inter=0 / no-constrained-intra / strong-intra-smoothing / max-merge=3 / limit-refs=3 / no-limit-modes / me=3 / subme=7 / merange=64 / temporal-mvp / weightp / weightb / no-analyze-src-pics / deblock=-3:-3 / no-sao / no-sao-non-deblock / rd=3 / no-early-skip / rskip / no-fast-intra / no-tskip-fast / no-cu-lossless / no-b-intra / no-splitrd-skip / rdpenalty=0 / psy-rd=1.00 / psy-rdoq=0.00 / no-rd-refine / analysis-reuse-mode=0 / no-lossless / cbqpoffs=0 / crqpoffs=0 / rc=crf / crf=19.0 / qcomp=0.60 / qpstep=4 / stats-write=0 / stats-read=0 / vbv-maxrate=50000 / vbv-bufsize=50000 / vbv-init=0.9 / crf-max=30.0 / crf-min=0.0 / ipratio=1.40 / pbratio=1.30 / aq-mode=1 / aq-strength=1.00 / cutree / zone-count=0 / no-strict-cbr / qg-size=32 / no-rc-grain / qpmax=69 / qpmin=0 / no-const-vbv / sar=1 / overscan=0 / videoformat=5 / range=0 / colorprim=1 / transfer=1 / colormatrix=1 / chromaloc=0 / display-window=0 / max-cll=0,0 / min-luma=0 / max-luma=1023 / log2-max-poc-lsb=8 / vui-timing-info / vui-hrd-info / slices=1 / no-opt-qp-pps / no-opt-ref-list-length-pps / no-multi-pass-opt-rps / scenecut-bias=0.05 / no-opt-cu-delta-qp / no-aq-motion / no-hdr / no-hdr-opt / no-dhdr10-opt / analysis-reuse-level=5 / scale-factor=0 / refine-intra=0 / refine-inter=0 / refine-mv=0 / no-limit-sao / ctu-info=0 / no-lowpass-dct / refine-mv-type=0 / copy-pic=1
Language : English
Default : Yes
Forced : No
Color range : Limited
Color primaries : BT.709
Transfer characteristics : BT.709
Matrix coefficients : BT.709

Audio #1
ID : 2
Format : AC-3
Format/Info : Audio Coding 3
Format settings, Endianness : Big
Codec ID : A_AC3
Duration : 2 h 19 min
Bit rate mode : Constant
Bit rate : 448 kb/s
Channel(s) : 6 channels
Channel positions : Front: L C R, Side: L R, LFE
Sampling rate : 48.0 kHz
Frame rate : 31.250 FPS (1536 SPF)
Bit depth : 16 bits
Compression mode : Lossy
Stream size : 447 MiB (6%)
Title : Dub
Language : Russian
Service kind : Complete Main
Default : Yes
Forced : No

Audio #2
ID : 3
Format : AC-3
Format/Info : Audio Coding 3
Format settings, Endianness : Big
Codec ID : A_AC3
Duration : 2 h 19 min
Bit rate mode : Constant
Bit rate : 448 kb/s
Channel(s) : 6 channels
Channel positions : Front: L C R, Side: L R, LFE
Sampling rate : 48.0 kHz
Frame rate : 31.250 FPS (1536 SPF)
Bit depth : 16 bits
Compression mode : Lossy
Stream size : 448 MiB (6%)
Title : Original
Language : English
Service kind : Complete Main
Default : No
Forced : No

Text #1
ID : 4
Format : UTF-8
Codec ID : S_TEXT/UTF8
Codec ID/Info : UTF-8 Plain Text
Duration : 2 h 5 min
Bit rate : 2 b/s
Count of elements : 50
Stream size : 2.29 KiB (0%)
Title : Forced
Language : Russian
Default : No
Forced : No

Text #2
ID : 5
Format : UTF-8
Codec ID : S_TEXT/UTF8
Codec ID/Info : UTF-8 Plain Text
Duration : 2 h 13 min
Bit rate : 134 b/s
Count of elements : 1902
Stream size : 132 KiB (0%)
Title : Full
Language : Russian
Default : No
Forced : No

Text #3
ID : 6
Format : UTF-8
Codec ID : S_TEXT/UTF8
Codec ID/Info : UTF-8 Plain Text
Duration : 2 h 13 min
Bit rate : 78 b/s
Count of elements : 1814
Stream size : 76.7 KiB (0%)
Title : Full
Language : English
Default : No
Forced : No

Menu
00:00:00.000 : :Chapter 1
00:09:38.745 : :Chapter 2
00:19:49.021 : :Chapter 3
00:34:21.560 : :Chapter 4
00:45:15.045 : :Chapter 5
00:49:37.808 : :Chapter 6
01:02:00.049 : :Chapter 7
01:05:52.982 : :Chapter 8
01:10:05.033 : :Chapter 9
01:15:08.637 : :Chapter 10
01:17:07.790 : :Chapter 11
01:19:41.277 : :Chapter 12
01:35:12.207 : :Chapter 13
01:39:10.778 : :Chapter 14
01:48:21.162 : :Chapter 15
01:56:42.028 : :Chapter 16
01:58:49.623 : :Chapter 17
02:05:17.677 : :Chapter 18
02:09:06.906 : :Chapter 19
02:14:05.871 : :Chapter 20
Загрузка...Cкриншот1 Аполлон 13 / Apollo 13 (1995) BDRip 1080p [HEVC] 10 bit от CthulhuЗагрузка...Cкриншот2 Аполлон 13 / Apollo 13 (1995) BDRip 1080p [HEVC] 10 bit от CthulhuЗагрузка...Cкриншот3 Аполлон 13 / Apollo 13 (1995) BDRip 1080p [HEVC] 10 bit от CthulhuЗагрузка...Cкриншот4 Аполлон 13 / Apollo 13 (1995) BDRip 1080p [HEVC] 10 bit от Cthulhu
Торрент🧲 Магнет

Рейтинги КП и IMDB, кнопки "Позвать в чате" и "Спасибо", а также мультитрекерная статистика доступны только зарегистрированным/авторизованным пользователям!

Файлы: 5
  • Apollo 13
    • AC3, Russian, 2.0 channels, 192kbps, 48kHz (Многоголосный закадровый ОРТ).ac3   191.82 МБ
    • AC3, Russian, 2.0 channels, 192kbps, 48kHz (Многоголосный закадровый Премьер Видео).ac3   191.77 МБ
    • AC3, Russian, 2.0 channels, 192kbps, 48kHz (Многоголосный закадровый СТС).ac3   191.77 МБ
    • Apollo 13 (1995) BDRip 1080p [HEVC] 10Bit.mkv   7.18 ГБ
    • DTS, Russian, 5.1 channels, 768kbps, 48kHz(Дубляж).dts   767 МБ
Поблагодарили: 11
375509, aorfelinov, brukvalub, davidoff_k4, fitaurari, gotgame1, isas1, syndicate, tagnupip, TheDrew, Vitoss6
Cthulhu
020903 (5)  8.49 ГБ

Добавление нового комментария

Добавление комментариев доступно только зарегистрированным/авторизованным пользователям.