💬 Мини-чат

OldGamerну и акустические излучатели собрать хорошие, типа Penaudio Legato Signature или похожие, тут надо тщательно собирать систему для прослушивания
OldGamerне помешает ещё посетить отоларинголога для промывки слухового аппарата от серных пробок специализированным сертифицированным раствором, это (промывка) имеет немаловажное значение
OldGamer😆🤐🤐
OldGamerи всё же лучше hi-end, с подключением кабелями типа Analysis-Plus Oval 9 из бескислородной меди и с их предварительным прогревом системой типа Nordost Vidar, иначе всё теряет смысл
XuMuKManson_Fan, не надо hi-end акустики, достаточно hi-fi. "Кристольность" на высоких частотах другая, в DTS кажется более "живым" звук. Но самая большая разница, когда сравниваешь АС3 с каким-нибудь DTS-HD MA
IRITРаздайте, пожалуйста, Байки из склепа: Демон ночи / Tales from the Crypt: Demon Knight (1995) BDRip 1080p [HEVC] 10 bit от druidblack
OldGamerManson_Fan, у меня нет hi-end акустики, поэтому не слушал, не знаю, может и есть разница. За других говорить не буду. В любом случае, продвинутым слухачам будет несложно найти, скачать и прикрепить дорожки требуемого им качества.
mafo2Manson_Fan, не все телевизоры поддерживают DTS. например, мой через встроенный плеер его не воспроизводит. можно конечно смотреть через ПК, но порой хочется и через ТВ.
Manson_FanOldGamer, "Скажите зачем релизёры звук DTS 768 kbps переделывают в AC3 640 kbps" Интересно, а разницу в качестве в фильмах кому то удавалось услышать?😕 мне вот нет
Manson_Fanникто еще не сравнивал HEVC и новый AV1?
IRITРаздайте, пожалуйста, Маньяк-полицейский 3: Знак молчания / Maniac Cop 3: Badge of Silence (1993) BDRip 1080p [HEVC] 10 bit от HANNIBAL
Spartanec1308С Днём Великой Победы!
BrooklynВсех с праздником! С Днем Великой Победы! Ура-Ура-Урааааааа
BrooklynADVOKAT69, Спасибо большое!
ADVOKAT69Операция «Ы» и другие приключения Шурика (1965) раздаю
mafo2С Днем Победы!
joker63Поздравляю всех с Днем Победы!
ADVOKAT69Admin, Спасибо деду за победу!Тебе за поздравление!
AdminADVOKAT69, Дедам спасибо.
ADVOKAT69Admin, спасибо большое!✋
  • alexyak
  • mvazquez
Отправка сообщений доступна только зарегистрированным/авторизованным пользователям.
Онлайн (за 10 мин.): 2

Спартак: Война проклятых / Spartacus: War of the Damned (2013) BDRip 1080p [HEVC] 8 bit от HANNIBAL

HEVC
8 bit
Обложка Спартак: Война проклятых / Spartacus: War of the Damned (2013) BDRip 1080p [HEVC] 8 bit от HANNIBAL Год: 2013
Страна: США
Студия: Starz Media, Starz Productions
Жанр: Боевик, Драма, История, Биография
Продолжительность: 10 х ~ 00:57:00

Режиссер: Рик Джейкобсон
В ролях: Лиам МакИнтайр, Ману Беннетт, Ричард Нортон, Дастин Клер, Дэниэл Фьюрриджел, Синтия Аддай-Робинсон, Саймон Меррелс, Эллен Холлман, Дитч Дэвей, Пена Хема Тейлор

Описание: «Спартак» — это жесткий и выразительный рассказ о самом знаменитом из римских гладиаторов. Спартака разлучили с любовью всей его жизни и заставили выходить на арену, где смерть — лучшее развлечение для толпы. Спартак должен бороться за выживание, подружиться с врагами, и усвоить политику нового мира жестокости, секса и славы. Его будут соблазнять властью и изводить местью. Но его страсть даст ему силы преодолеть все испытания в этой истории о смерти, чести и стойкости.


Видео: 1920x1080, 3732 Kbps
Аудио: AC3, 6 ch, 448 Kbps - РусскийРусский, Профессиональный (многоголосый, закадровый)
Субтитры: нет

Медиаинфо
General
Unique ID : 250936589423026065116182531462848733281 (0xBCC8A1115D7A4E578EEAAEF64D5E6061)
Complete name : F:\HEVC-CLUB\Spartacus War of the Damned [S03] (2013) BDRip 1080p [HEVC]\s4.mkv
Format : Matroska
Format version : Version 2
File size : 1.93 GiB
Duration : 56 min 55 s
Overall bit rate : 4 851 kb/s
Movie name : s4
Encoded date : UTC 2017-03-12 15:09:12
Writing application : DVDFab 9.2.4.4
Writing library : libebml v0.7.8 + libmatroska v0.8.1

Video
ID : 1
Format : HEVC
Format/Info : High Efficiency Video Coding
Format profile : Main@L5@High
Codec ID : V_MPEGH/ISO/HEVC
Duration : 56 min 55 s
Bit rate : 4 306 kb/s
Width : 1 920 pixels
Height : 1 080 pixels
Display aspect ratio : 16:9
Frame rate mode : Constant
Frame rate : 23.976 (24000/1001) FPS
Color space : YUV
Chroma subsampling : 4:2:0
Bit depth : 8 bits
Bits/(Pixel*Frame) : 0.087
Stream size : 1.71 GiB (89%)
Default : Yes
Forced : No

Audio
ID : 2
Format : AC-3
Format/Info : Audio Coding 3
Codec ID : A_AC3
Duration : 56 min 55 s
Bit rate mode : Constant
Bit rate : 448 kb/s
Channel(s) : 6 channels
Channel positions : Front: L C R, Side: L R, LFE
Sampling rate : 48.0 kHz
Frame rate : 31.250 FPS (1536 SPF)
Bit depth : 16 bits
Compression mode : Lossy
Stream size : 182 MiB (9%)
Language : Russian
Service kind : Complete Main
Default : Yes
Forced : No
Загрузка...Cкриншот1 Спартак: Война проклятых / Spartacus: War of the Damned (2013) BDRip 1080p [HEVC] 8 bit от HANNIBALЗагрузка...Cкриншот2 Спартак: Война проклятых / Spartacus: War of the Damned (2013) BDRip 1080p [HEVC] 8 bit от HANNIBALЗагрузка...Cкриншот3 Спартак: Война проклятых / Spartacus: War of the Damned (2013) BDRip 1080p [HEVC] 8 bit от HANNIBALЗагрузка...Cкриншот4 Спартак: Война проклятых / Spartacus: War of the Damned (2013) BDRip 1080p [HEVC] 8 bit от HANNIBAL
Сэмпл Торрент🧲 Магнет

Рейтинги КП и IMDB, кнопки "Позвать в чате" и "Спасибо", а также мультитрекерная статистика доступны только зарегистрированным/авторизованным пользователям!

Файлы: 10
  • Spartacus War of the Damned [S03] (2013) BDRip 1080p [HEVC]
    • s1.mkv   1.53 ГБ
    • s10.mkv   1.97 ГБ
    • s2.mkv   1.99 ГБ
    • s3.mkv   1.98 ГБ
    • s4.mkv   1.93 ГБ
    • s5.mkv   1.98 ГБ
    • s6.mkv   1.95 ГБ
    • s7.mkv   1.95 ГБ
    • s8.mkv   1.93 ГБ
    • s9.mkv   1.96 ГБ
Поблагодарили: 2
brukvalub, igor3176
HANNIBAL
05300 (10)  19.17 ГБ

Добавление нового комментария

Добавление комментариев доступно только зарегистрированным/авторизованным пользователям.