💬 Мини-чат

Для тех, кому интересен процесс переделки сайта - https://rips.club/changelog.html (обновлен 22.02.2024)
OldGamerz1M4p9i0, и этот релиз скачался
Adminatomicheart, встал, но у Вас в профиле не видно. Вам бы перекачать.
OldGamerz1M4p9i0, Хан Соло скачался, но релиз, который был на руторе, там аудиодорожек меньше, чем тут, а видеоряд тот же. Попробуйте оттуда, я пока что сидирую.
OldGamerХан Соло откуда-то по чайной ложке в час скачивается, за сутки 50%, наблюдаем-с дальше
Adminatomicheart, завтра посмотрю, он у меня должен быть.
atomicheartРаздайте, пожалуйста, Тихое место: Дилогия / A Quiet Place: Dilogy (2018-2020) UHD-BDRip 1080p [HEVC] 10 bit [HDR] от Mr. Fox
z1M4p9i0Раздайте, пожалуйста, Хан Соло: Звёздные войны. Истории / Solo: A Star Wars Story (2018) [Локализованная версия] BDRip 1080p [HEVC] 10 bit от Cthulhu
z1M4p9i0Раздайте, пожалуйста, Терминатор: Тёмные судьбы / Terminator: Dark Fate (2019) [iTunes] UHD-BDRip 1440p [HEVC] 10 bit от HANNIBAL
OldGamerKeynol, честно говоря, пока что не планировалось, так как у нас есть отличный рип этого фильма
KeynolПриветствую! А можно сделать HEVC 10 bit на Трон Наследие Hybrid ? там файл на 31 гиг :-( на рутрекере. Хороший, но очень массивный..
  • Admin
  • OldGamer
  • Brooklyn
  • Goodcat
  • ilyich05
  • InSpector
  • pmihail99
Отправка сообщений доступна только зарегистрированным/авторизованным пользователям.
Онлайн (за 10 мин.): 7

Ходячие Мертвецы / The Walking Dead [S01] (2010) BDRip 1080p [HEVC] 8 bit от HANNIBAL

HEVC
8 bit
Обложка Ходячие Мертвецы / The Walking Dead [S01] (2010) BDRip 1080p [HEVC] 8 bit от HANNIBAL Год: 2010
Страна: США
Жанр: Ужасы, Триллер, Фантастика
Продолжительность: 6 x ~ 00:45:00

Режиссер: Фрэнк Дарабонт, Эрнест Р. Дикерсон, Гай Ферленд
В ролях: Эндрю Линкольн, Джон Бернтал, Сара Уэйн Кэллис, Лори Холден, Джеффри ДеМунн, Стивен Юн, Чендлер Риггз, Норман Ридус, Эмма Белл, Айрон Э. Синглтон, Мелисса Сюзанн МакБрайд, Джерил Прескотт

Описание: Сериал рассказывает историю жизни семьи шерифа после того, как «зомби» - эпидемия апокалипсических масштабов захлестнула земной шар. Шериф Рик Грайм путешествует со своей семьей и небольшой группой выживших в поисках безопасного места для жизни. Но постоянный страх смерти каждый день приносит тяжелые потери, заставляя героев почувствовать глубины человеческой жестокости. Рик пытается спасти свою семью, и открывает для себя, что всепоглощающий страх тех, кто выжил, может быть опаснее бессмысленных мертвецов, бродящих по земле.


Видео: 1920x1080, 4152 Kbps
Аудио1: AC3, 6 ch, 448 Kbps - РусскийРусский, Профессиональный (многоголосый закадровый) (Fox Crime)
Аудио2: AC3, 6 ch, 448 Kbps - РусскийРусский, Профессиональный (многоголосый закадровый) (LostFilm)
Аудио3: AC3, 6 ch, 448 Kbps - РусскийРусский, Профессиональный (многоголосый закадровый) (NovaFilm)
Субтитры: нет

Как за пару секунд удалить ненужные аудиодорожки и субтитры (Внимание! После удаления вы не сможете поддержать раздачу)

Медиаинфо
General
Unique ID : 250071036282943137472531557683400649691 (0xBC21EE00D3D750389EFC7FC8F3B9ABDB)
Complete name : F:\HEVC-CLUB\The Walking Dead [S01] (2010) BDRip 1080p [HEVC]\3.mkv
Format : Matroska
Format version : Version 4 / Version 2
File size : 1.75 GiB
Duration : 45 min 11 s
Overall bit rate : 5 531 kb/s
Movie name : 00005
Encoded date : UTC 2017-10-15 15:40:20
Writing application : DVDFab 10.0.5.7
Writing library : libebml v1.3.4 + libmatroska v1.4.5

Video
ID : 1
Format : HEVC
Format/Info : High Efficiency Video Coding
Format profile : Main@L4@Main
Codec ID : V_MPEGH/ISO/HEVC
Duration : 45 min 10 s
Bit rate : 4 185 kb/s
Width : 1 920 pixels
Height : 1 080 pixels
Display aspect ratio : 16:9
Frame rate mode : Constant
Frame rate : 23.976 (24000/1001) FPS
Color space : YUV
Chroma subsampling : 4:2:0 (Type 1 / Type 0)
Bit depth : 8 bits
Bits/(Pixel*Frame) : 0.084
Stream size : 1.32 GiB (76%)
Default : Yes
Forced : No
Color range : Full
Color primaries : BT.709
Transfer characteristics : BT.709
Matrix coefficients : BT.709

Audio #1
ID : 2
Format : AC-3
Format/Info : Audio Coding 3
Codec ID : A_AC3
Duration : 45 min 11 s
Bit rate mode : Constant
Bit rate : 448 kb/s
Channel(s) : 6 channels
Channel positions : Front: L C R, Side: L R, LFE
Sampling rate : 48.0 kHz
Frame rate : 31.250 FPS (1536 SPF)
Bit depth : 16 bits
Compression mode : Lossy
Stream size : 145 MiB (8%)
Language : Russian
Service kind : Complete Main
Default : Yes
Forced : No

Audio #2
ID : 3
Format : AC-3
Format/Info : Audio Coding 3
Codec ID : A_AC3
Duration : 45 min 11 s
Bit rate mode : Constant
Bit rate : 448 kb/s
Channel(s) : 6 channels
Channel positions : Front: L C R, Side: L R, LFE
Sampling rate : 48.0 kHz
Frame rate : 31.250 FPS (1536 SPF)
Bit depth : 16 bits
Compression mode : Lossy
Stream size : 145 MiB (8%)
Language : Russian
Service kind : Complete Main
Default : No
Forced : No

Audio #3
ID : 4
Format : AC-3
Format/Info : Audio Coding 3
Codec ID : A_AC3
Duration : 45 min 11 s
Bit rate mode : Constant
Bit rate : 448 kb/s
Channel(s) : 6 channels
Channel positions : Front: L C R, Side: L R, LFE
Sampling rate : 48.0 kHz
Frame rate : 31.250 FPS (1536 SPF)
Bit depth : 16 bits
Compression mode : Lossy
Stream size : 145 MiB (8%)
Language : Russian
Service kind : Complete Main
Default : No
Forced : No
Загрузка...Cкриншот1 Ходячие Мертвецы / The Walking Dead [S01] (2010) BDRip 1080p [HEVC] 8 bit от HANNIBALЗагрузка...Cкриншот2 Ходячие Мертвецы / The Walking Dead [S01] (2010) BDRip 1080p [HEVC] 8 bit от HANNIBALЗагрузка...Cкриншот3 Ходячие Мертвецы / The Walking Dead [S01] (2010) BDRip 1080p [HEVC] 8 bit от HANNIBALЗагрузка...Cкриншот4 Ходячие Мертвецы / The Walking Dead [S01] (2010) BDRip 1080p [HEVC] 8 bit от HANNIBAL
Сэмпл Торрент🧲 Магнет

Рейтинги КП и IMDB, кнопки "Позвать в чате" и "Спасибо", а также мультитрекерная статистика доступны только зарегистрированным/авторизованным пользователям!

Файлы: 6
  • The Walking Dead [S01] (2010) BDRip 1080p [HEVC]
    • 1.mkv   1.86 ГБ
    • 2.mkv   1.72 ГБ
    • 3.mkv   1.75 ГБ
    • 4.mkv   1.72 ГБ
    • 5.mkv   1.74 ГБ
    • 6.mkv   1.74 ГБ
Поблагодарили: 2
brukvalub, Лара
HANNIBAL
21200 (6)  10.53 ГБ

Добавление нового комментария

Добавление комментариев доступно только зарегистрированным/авторизованным пользователям.
Аватар не указан
  J-Kwon  
Не качает. Встаньте на раздачу!
Аватар Студень
  Студень  
Если очень хочется размерчик по-меньше сделать, то это не достигается тупо снижением битрейта. Здесь откровенный недолив.