💬 Мини-чат

Убедительная просьба не обсуждать тут политику.
EiffeLПРивет все посетителям ресурса!
EiffeLAdmin, Здравствуйте.
Adminnormalllhuman, встал
normalllhumanРаздайте, пожалуйста, Пекло / Sunshine (2007) BDRip 1080p [HEVC] 10 bit от Мичман
OldGamerAdmin, ✋
Spartanec1308Сообщение удалено (удалил: Spartanec1308)
igor302Раздайте, пожалуйста, Страшно красив / Beastly (2011) BDRip 1080p [HEVC] 10 bit от Spartanec1308
  • Admin
  • Spartanec1308
  • sergey678
Отправка сообщений доступна только зарегистрированным/авторизованным пользователям.
Онлайн (за 10 мин.): 3

Зажигание / Combustión (2013) BDRip 1080p [HEVC] 10 bit от HANNIBAL

HEVC
10 bit
Обложка Зажигание / Combustión (2013) BDRip 1080p [HEVC] 10 bit от HANNIBAL Год: 2013
Страна: Испания
Жанр: Мелодрама, Приключения, Боевик
Продолжительность: 01:43:36

Режиссер: Даниэль Кальпарсоро
В ролях: Алекс Гонсалес, Адриана Угарте, Альберто Амман, Мария Кастро, Луис Саера, Марта Ниэто, Кристиан Мулас, Хуан Пабло Шук, Мария Каласса

Описание: Навас и Ари — идеальная пара и профессиональные мошенники. Она — роковая красотка, соблазняющая богатых мужчин, а он — жестокий налетчик, который их грабит. Все меняется, когда Навас и Ари выбирают себе новую жертву — богатенького красавчика Микеля, в которого Ари влюбляется без памяти…


Видео: 1920x816, 9282 Kbps
Аудио: AC3, 6 ch, 640 Kbps - РусскийРусский, Дублированный (Лицензия)
Субтитры: нет

Медиаинфо
General
Unique ID : 138562649608416602295967898561335652196 (0x683E321332DC95DB248E2B2D4F81EF64)
Complete name : D:\ВИДЕО\фильмы\Зажигание Combustión (2013) Blu-ray Disc [SPA Transfer] -BLUEBIRD\BDMV\STREAM\Зажигание.mkv
Format : Matroska
Format version : Version 4
File size : 7.33 GiB
Duration : 1 h 43 min
Overall bit rate : 10.1 Mb/s
Movie name : Зажигание
Writing application : XviD4PSP 7.0.461 DAILY
Writing library : Lavf57.71.100
ErrorDetectionType : Per level 1
Attachments : poster.jpg
ACTORS : Альберто Амман, Адриана Угарте,
COUNTRY : Испания
DATE : 2013
DIRECTOR : Даниэль Кальпарсоро
ENCODING_INFO : MPEGTS > MKV 1080p 10-bit / H264 > X265 CRF 18.5 Medium / DTS-HD MA > AC3 CBR 640kbps
GENRE : мелодрама, приключения, боевик
HD_VIDEO : 1
Language : und
MEDIA_TYPE : 9
ORIGINAL_TITLE : Combustión

Video
ID : 1
Format : HEVC
Format/Info : High Efficiency Video Coding
Format profile : Main 10@L4.1@High
Codec ID : V_MPEGH/ISO/HEVC
Duration : 1 h 43 min
Bit rate : 9 282 kb/s
Width : 1 920 pixels
Height : 816 pixels
Display aspect ratio : 2.35:1
Frame rate mode : Constant
Frame rate : 24.000 FPS
Color space : YUV
Chroma subsampling : 4:2:0
Bit depth : 10 bits
Bits/(Pixel*Frame) : 0.247
Stream size : 6.72 GiB (92%)
Writing library : x265 2.9+9-f74003e88622:[Windows][GCC 7.3.0][64 bit] 10bit
Encoding settings : cpuid=1111039 / frame-threads=13 / numa-pools=12 / wpp / no-pmode / no-pme / no-psnr / no-ssim / log-level=3 / input-csp=1 / input-res=1920x816 / interlace=0 / total-frames=0 / level-idc=41 / high-tier=1 / uhd-bd=0 / ref=5 / allow-non-conformance / no-repeat-headers / annexb / no-aud / no-hrd / info / hash=0 / no-temporal-layers / no-open-gop / min-keyint=24 / keyint=240 / gop-lookahead=0 / bframes=7 / b-adapt=2 / b-pyramid / bframe-bias=0 / rc-lookahead=40 / lookahead-slices=5 / scenecut=40 / radl=0 / no-intra-refresh / ctu=64 / min-cu-size=8 / rect / amp / max-tu-size=32 / tu-inter-depth=1 / tu-intra-depth=1 / limit-tu=0 / rdoq-level=0 / dynamic-rd=0.00 / no-ssim-rd / signhide / no-tskip / nr-intra=0 / nr-inter=0 / no-constrained-intra / no-strong-intra-smoothing / max-merge=2 / limit-refs=3 / no-limit-modes / me=3 / subme=7 / merange=57 / temporal-mvp / weightp / no-weightb / no-analyze-src-pics / deblock=-3:-3 / no-sao / no-sao-non-deblock / rd=3 / no-early-skip / rskip / no-fast-intra / no-tskip-fast / no-cu-lossless / no-b-intra / no-splitrd-skip / rdpenalty=0 / psy-rd=2.00 / psy-rdoq=0.00 / no-rd-refine / no-lossless / cbqpoffs=0 / crqpoffs=0 / rc=crf / crf=18.5 / qcomp=0.70 / qpstep=4 / stats-write=0 / stats-read=0 / vbv-maxrate=50000 / vbv-bufsize=50000 / vbv-init=0.9 / crf-max=0.0 / crf-min=0.0 / ipratio=1.40 / pbratio=1.30 / aq-mode=1 / aq-strength=1.00 / cutree / zone-count=0 / no-strict-cbr / qg-size=32 / no-rc-grain / qpmax=69 / qpmin=0 / no-const-vbv / sar=1 / overscan=0 / videoformat=5 / range=0 / colorprim=1 / transfer=1 / colormatrix=1 / chromaloc=0 / display-window=0 / max-cll=0,0 / min-luma=0 / max-luma=1023 / log2-max-poc-lsb=8 / vui-timing-info / vui-hrd-info / slices=1 / no-opt-qp-pps / no-opt-ref-list-length-pps / no-multi-pass-opt-rps / scenecut-bias=0.05 / no-opt-cu-delta-qp / no-aq-motion / no-hdr / no-hdr-opt / no-dhdr10-opt / no-idr-recovery-sei / analysis-reuse-level=5 / scale-factor=0 / refine-intra=0 / refine-inter=0 / refine-mv=0 / no-limit-sao / ctu-info=0 / no-lowpass-dct / refine-mv-type=0 / copy-pic=1 / max-ausize-factor=1.0 / no-dynamic-refine / no-single-sei
Default : Yes
Forced : No
Color range : Limited
Color primaries : BT.709
Transfer characteristics : BT.709
Matrix coefficients : BT.709

Audio
ID : 2
Format : AC-3
Format/Info : Audio Coding 3
Commercial name : Dolby Digital
Codec ID : A_AC3
Duration : 1 h 43 min
Bit rate mode : Constant
Bit rate : 640 kb/s
Channel(s) : 6 channels
Channel layout : L R C LFE Ls Rs
Sampling rate : 48.0 kHz
Frame rate : 31.250 FPS (1536 SPF)
Bit depth : 16 bits
Compression mode : Lossy
Stream size : 474 MiB (6%)
Service kind : Complete Main
Default : Yes
Forced : No

Menu
00:00:00.000 : :Глава 1
00:07:52.375 : :Глава 2
00:20:39.083 : :Глава 3
00:30:17.166 : :Глава 4
00:39:55.250 : :Глава 5
00:49:09.958 : :Глава 6
00:56:26.125 : :Глава 7
01:07:03.666 : :Глава 8
01:16:05.791 : :Глава 9
01:25:08.791 : :Глава 10
01:33:24.333 : :Глава 11
01:40:05.375 : :Глава 12
Загрузка...Cкриншот1 Зажигание / Combustión (2013) BDRip 1080p [HEVC] 10 bit от HANNIBALЗагрузка...Cкриншот2 Зажигание / Combustión (2013) BDRip 1080p [HEVC] 10 bit от HANNIBALЗагрузка...Cкриншот3 Зажигание / Combustión (2013) BDRip 1080p [HEVC] 10 bit от HANNIBALЗагрузка...Cкриншот4 Зажигание / Combustión (2013) BDRip 1080p [HEVC] 10 bit от HANNIBAL
Сэмпл Торрент🧲 Магнет

Рейтинги КП и IMDB, кнопки "Позвать в чате" и "Спасибо", а также мультитрекерная статистика доступны только зарегистрированным/авторизованным пользователям!

Файлы: 1
  • Combustión (2013) BDRip 1080p [HEVC] 10 bit.mkv   7.33 ГБ
Поблагодарили: 7
375509, A1eksandr1, and50, KEYS, Korbis, observer4444, sema1960
Admin
3113007.33 ГБ

Добавление нового комментария

Добавление комментариев доступно только зарегистрированным/авторизованным пользователям.
Аватар HANNIBAL
  HANNIBAL  
Admin писал(а):
Сорян. Тогда давай так: если в течение часа сам не выложишь, то тогда я.
ок 👍это я пока с рутором возился ты обогнал
Аватар Admin
  Admin  
HANNIBAL писал(а):
блин хотел сам выложить
Сорян. Тогда давай так: если в течение часа сам не выложишь, то тогда я.
Аватар HANNIBAL
  HANNIBAL  
блин хотел сам выложить