💬 Мини-чат

BrooklynOldGamer, Ок, спасибо, качаю.
OldGamerBrooklyn, они все на раздаче пока что
BrooklynOldGamer, Пораздавайте, пожалуйста, все сезоны сериала "Гримм" ближайшие 3 дня, очень хочу их забрать. Качество отличное. Заранее Благодарен.
StarLordСообщение удалено (удалил: StarLord)
OldGamerвыводить
mafo2Admin, можно вывести, наглядно будет
StarLordAdmin, +
AdminНадпись HDR выводить на обложку?
OldGamerGiggalo, но лучше всего вообще не затрагивайте этот ключ, по умолчанию будет установлено оптимальное значение
OldGamerGiggalo, но если уж очень хочется то пишите --frame-threads 3
OldGamerGiggalo, а зачем его менять?) нужное значение устанавливается автоматически
GiggaloДобрый вечер всем! OldGamer Покажи пожалуйста почему когда пишу в командной строке frame-threads=3 он не меняется. Какой там стоит 13 он его и держит, а ругие установки спокойно меняет?
AdminStarLord, спасибо. Пока сойдет.
StarLordAdmin, ага, вижу
StarLordAdmin, а как должно брать?
AdminStarLord, ты шаришь?
AdminStarLord, у меня сейчас такая, но с точками беда. Доработать бы (https?://([-\w\.]+)+(:\d+)?(/([-\w/_:%]*(\.\w+)*(\?\S+)?)?)?)
AdminStarLord, скрины в bb некорректно берет
StarLordwww, ftp(s), http(s), #, :, &
StarLordAdmin, все мои кейсы покрыла
  • OldGamer
  • InSpector
  • ivan_1965
  • Rezident
Отправка сообщений доступна только зарегистрированным/авторизованным пользователям.
Онлайн (за 10 мин.): 4

Красотка / Pretty Woman (1990) BDRip 1080p [HEVC] 10 bit от M@kSIMus

HEVC
10 bit
Обложка Красотка / Pretty Woman (1990) BDRip 1080p [HEVC] 10 bit от M@kSIMus Год: 1990
Страна: США
Студия: Silver Screen Partners IV, Touchstone Pictures
Жанр: Мелодрама, Комедия
Продолжительность: 01:59:37

Режиссер: Гэрри Маршалл
В ролях: Ричард Гир, Джулия Робертс, Ральф Беллами, Джейсон Александер, Лора Сан Джакомо, Алекс Хайд-Уайт, Эми Ясбек, Элинор Донахью, Гектор Элизондо, Джудит Болдуин

Описание: Финансовый магнат Эдвард Льюис, проезжая по ночному городу, останавливается около красивой женщины. Ее зовут Вивьен и она берет только наличными. Наутро он понимает, что не хочет расставаться с ней и предлагает девушке остаться в его номере в отеле еще на некоторое время — за дополнительный гонорар. Вивьен оказывается в море блеска и лжи. Она терпит небрежное отношение к ней ради понравившегося мужчины, который перестал быть для нее просто клиентом.


Видео: 1920x1040, 8025 Kbps
Аудио1: AC3, 6 ch, 640 Kbps - РусскийРусский, Дублированный (Нева)
Аудио2: AC3, 2 ch, 192 Kbps - РусскийРусский, Дублированный (ОРТ)
Аудио3: AC3, 6 ch, 448 Kbps - АнглийскийАнглийский, Оригинал
Субтитры: Русские (форсированные, полные)

Как за пару секунд удалить ненужные аудиодорожки и субтитры (Внимание! После удаления вы не сможете поддержать раздачу)

Медиаинфо
Общее
Уникальный идентификатор : 143456805957919682222251581289743139591 (0x6BECC69CEDE4D53466CE5EDF5D3E4307)
Полное имя : Красотка (1990) BDRip 1080p [HEVC] 10 bit.mkv
Формат : Matroska
Версия формата : Version 4 / Version 2
Размер файла : 7,78 Гбайт
Продолжительность : 1 ч. 59 м.
Общий поток : 9308 Кбит/сек
Название фильма : Rip_by_M@kSIMus
Дата кодирования : UTC 2018-12-22 11:11:20
Программа кодирования : mkvmerge v29.0.0 ('Like It Or Not') 64-bit
Библиотека кодирования : libebml v1.3.6 + libmatroska v1.4.9
Обложка : Yes
Attachments : cover.jpg

Видео
Идентификатор : 1
Формат : HEVC
Формат/Информация : High Efficiency Video Coding
Профиль формата : Main 10@L4.1@High
Идентификатор кодека : V_MPEGH/ISO/HEVC
Продолжительность : 1 ч. 59 м.
Битрейт : 8025 Кбит/сек
Ширина : 1920 пикселей
Высота : 1040 пикселей
Соотношение сторон : 1,85:1
Режим частоты кадров : Постоянный
Частота кадров : 23,976 (24000/1001) кадра/сек
Цветовое пространство : YUV
Субдискретизация насыщенности : 4:2:0
Битовая глубина : 10 бит
Бит/(Пиксели*Кадры) : 0.168
Размер потока : 6,71 Гбайт (86%)
Библиотека кодирования : x265 2.9+9-f74003e88622:[Windows][GCC 7.3.0][64 bit] 10bit
Настройки программы : cpuid=1049583 / frame-threads=5 / numa-pools=4 / wpp / no-pmode / no-pme / no-psnr / no-ssim / log-level=3 / input-csp=1 / input-res=1920x1040 / interlace=0 / total-frames=0 / level-idc=41 / high-tier=1 / uhd-bd=0 / ref=5 / allow-non-conformance / no-repeat-headers / annexb / no-aud / no-hrd / info / hash=0 / no-temporal-layers / open-gop / min-keyint=24 / keyint=240 / gop-lookahead=0 / bframes=8 / b-adapt=2 / b-pyramid / bframe-bias=0 / rc-lookahead=40 / lookahead-slices=6 / scenecut=40 / radl=0 / no-intra-refresh / ctu=64 / min-cu-size=8 / no-rect / no-amp / max-tu-size=32 / tu-inter-depth=1 / tu-intra-depth=1 / limit-tu=0 / rdoq-level=0 / dynamic-rd=0.00 / no-ssim-rd / signhide / no-tskip / nr-intra=0 / nr-inter=0 / no-constrained-intra / strong-intra-smoothing / max-merge=2 / limit-refs=3 / no-limit-modes / me=3 / subme=7 / merange=57 / temporal-mvp / weightp / no-weightb / no-analyze-src-pics / deblock=-3:-3 / no-sao / no-sao-non-deblock / rd=3 / no-early-skip / rskip / no-fast-intra / no-tskip-fast / no-cu-lossless / no-b-intra / no-splitrd-skip / rdpenalty=0 / psy-rd=2.00 / psy-rdoq=0.00 / no-rd-refine / no-lossless / cbqpoffs=0 / crqpoffs=0 / rc=crf / crf=18.0 / qcomp=0.60 / qpstep=4 / stats-write=0 / stats-read=0 / vbv-maxrate=50000 / vbv-bufsize=50000 / vbv-init=0.9 / crf-max=0.0 / crf-min=0.0 / ipratio=1.40 / pbratio=1.30 / aq-mode=1 / aq-strength=1.00 / cutree / zone-count=0 / no-strict-cbr / qg-size=32 / no-rc-grain / qpmax=69 / qpmin=0 / no-const-vbv / sar=1 / overscan=0 / videoformat=5 / range=0 / colorprim=1 / transfer=1 / colormatrix=1 / chromaloc=0 / display-window=0 / max-cll=0,0 / min-luma=0 / max-luma=1023 / log2-max-poc-lsb=8 / vui-timing-info / vui-hrd-info / slices=1 / no-opt-qp-pps / no-opt-ref-list-length-pps / no-multi-pass-opt-rps / scenecut-bias=0.05 / no-opt-cu-delta-qp / no-aq-motion / no-hdr / no-hdr-opt / no-dhdr10-opt / no-idr-recovery-sei / analysis-reuse-level=5 / scale-factor=0 / refine-intra=0 / refine-inter=0 / refine-mv=0 / no-limit-sao / ctu-info=0 / no-lowpass-dct / refine-mv-type=0 / copy-pic=1 / max-ausize-factor=1.0 / no-dynamic-refine / no-single-sei
Язык : English
Default : Да
Forced : Нет
Цветовой диапазон : Limited
Основные цвета : BT.709
Характеристики трансфера : BT.709
Коэффициенты матрицы : BT.709

Аудио #1
Идентификатор : 2
Формат : AC-3
Формат/Информация : Audio Coding 3
Идентификатор кодека : A_AC3
Продолжительность : 1 ч. 59 м.
Вид битрейта : Постоянный
Битрейт : 640 Кбит/сек
Каналы : 6 каналов
Расположение каналов : Front: L C R, Side: L R, LFE
Частота : 48,0 КГц
Частота кадров : 31,250 кадров/сек (1536 SPF)
Битовая глубина : 16 бит
Метод сжатия : С потерями
Размер потока : 548 Мбайт (7%)
Заголовок : Дубляж CEE [Нева]
Язык : Russian
ServiceKind/String : Complete Main
Default : Да
Forced : Нет

Аудио #2
Идентификатор : 3
Формат : AC-3
Формат/Информация : Audio Coding 3
Идентификатор кодека : A_AC3
Продолжительность : 1 ч. 59 м.
Вид битрейта : Постоянный
Битрейт : 192 Кбит/сек
Каналы : 2 канала
Расположение каналов : Front: L R
Частота : 48,0 КГц
Частота кадров : 31,250 кадров/сек (1536 SPF)
Битовая глубина : 16 бит
Метод сжатия : С потерями
Размер потока : 164 Мбайт (2%)
Заголовок : Дубляж [ОРT]
Язык : Russian
ServiceKind/String : Complete Main
Default : Нет
Forced : Нет

Аудио #3
Идентификатор : 4
Формат : AC-3
Формат/Информация : Audio Coding 3
Идентификатор кодека : A_AC3
Продолжительность : 1 ч. 59 м.
Вид битрейта : Постоянный
Битрейт : 448 Кбит/сек
Каналы : 6 каналов
Расположение каналов : Front: L C R, Side: L R, LFE
Частота : 48,0 КГц
Частота кадров : 31,250 кадров/сек (1536 SPF)
Битовая глубина : 16 бит
Метод сжатия : С потерями
Размер потока : 383 Мбайт (5%)
Заголовок : Оригинал
Язык : English
ServiceKind/String : Complete Main
Default : Нет
Forced : Нет

Текст #1
Идентификатор : 5
Формат : UTF-8
Идентификатор кодека : S_TEXT/UTF8
Идентификатор кодека/Информация : UTF-8 Plain Text
Продолжительность : 36 м. 21 с.
Битрейт : 0 бит/сек
ElementCount : 10
Размер потока : 213 байт (0%)
Заголовок : Forced
Язык : Russian
Default : Да
Forced : Да

Текст #2
Идентификатор : 6
Формат : UTF-8
Идентификатор кодека : S_TEXT/UTF8
Идентификатор кодека/Информация : UTF-8 Plain Text
Продолжительность : 1 ч. 56 м.
Битрейт : 113 бит/сек
ElementCount : 1576
Размер потока : 96,5 Кбайт (0%)
Заголовок : Full
Язык : Russian
Default : Нет
Forced : Нет

Меню
00:00:00.000 : :Opening Credits
00:09:26.399 : :Lookin' For A Date?
00:13:39.235 : :In The Driver's Seat
00:18:51.130 : :The Penthouse
00:34:00.038 : :A Business Proposition
00:41:51.968 : :Trouble At The Hotel
00:44:46.684 : :A Setback
00:49:52.031 : :Working Dinner
00:54:50.078 : :Love On A Piano
01:00:35.757 : :Shopping Spree
01:08:36.487 : :At The Polo Match
01:17:20.636 : :Pillow Talk
01:21:09.323 : :Dressed To The Nines
01:29:10.178 : :Just Semantics
01:35:29.140 : :A Change Of Interest
01:42:23.637 : :Unpleasant Caller
01:48:39.596 : :Back To Reality
01:52:34.456 : :Princess Vivian
01:56:27.189 : :End Credits
Загрузка...Cкриншот1 Красотка / Pretty Woman (1990) BDRip 1080p [HEVC] 10 bit от M@kSIMusЗагрузка...Cкриншот2 Красотка / Pretty Woman (1990) BDRip 1080p [HEVC] 10 bit от M@kSIMusЗагрузка...Cкриншот3 Красотка / Pretty Woman (1990) BDRip 1080p [HEVC] 10 bit от M@kSIMusЗагрузка...Cкриншот4 Красотка / Pretty Woman (1990) BDRip 1080p [HEVC] 10 bit от M@kSIMus
Сэмпл Торрент🧲 Магнет

Рейтинги КП и IMDB, кнопки "Позвать в чате" и "Спасибо", а также мультитрекерная статистика сидов и пиров доступны только зарегистрированным/авторизованным пользователям!

Файлы: 1
  • Красотка (1990) BDRip 1080p [HEVC] 10 bit.mkv   7.78 ГБ
Поблагодарили: 23
2ps63, 375509, A1eksandr1, Boogerman, brukvalub, cdmitry, davidoff_k4, e7e1, Flann, Laska020489, mafo2, makss333, mvclub, NoMaD, Nuclear70, OldGamer, SaN161NeK, sema1960, Vatr, vikievan, vlad55, сова3411, Ярослав
Admin
0305007.78 ГБ

Добавление нового комментария

Добавление комментариев доступно только зарегистрированным/авторизованным пользователям.