💬 Мини-чат

BrooklynOldGamer, Ок, спасибо, качаю.
OldGamerBrooklyn, они все на раздаче пока что
BrooklynOldGamer, Пораздавайте, пожалуйста, все сезоны сериала "Гримм" ближайшие 3 дня, очень хочу их забрать. Качество отличное. Заранее Благодарен.
StarLordСообщение удалено (удалил: StarLord)
OldGamerвыводить
mafo2Admin, можно вывести, наглядно будет
StarLordAdmin, +
AdminНадпись HDR выводить на обложку?
OldGamerGiggalo, но лучше всего вообще не затрагивайте этот ключ, по умолчанию будет установлено оптимальное значение
OldGamerGiggalo, но если уж очень хочется то пишите --frame-threads 3
OldGamerGiggalo, а зачем его менять?) нужное значение устанавливается автоматически
GiggaloДобрый вечер всем! OldGamer Покажи пожалуйста почему когда пишу в командной строке frame-threads=3 он не меняется. Какой там стоит 13 он его и держит, а ругие установки спокойно меняет?
AdminStarLord, спасибо. Пока сойдет.
StarLordAdmin, ага, вижу
StarLordAdmin, а как должно брать?
AdminStarLord, ты шаришь?
AdminStarLord, у меня сейчас такая, но с точками беда. Доработать бы (https?://([-\w\.]+)+(:\d+)?(/([-\w/_:%]*(\.\w+)*(\?\S+)?)?)?)
AdminStarLord, скрины в bb некорректно берет
StarLordwww, ftp(s), http(s), #, :, &
StarLordAdmin, все мои кейсы покрыла
  • Andrey_alex
  • deforex
  • donadar
  • hunter
  • InSpector
  • moonson
Отправка сообщений доступна только зарегистрированным/авторизованным пользователям.
Онлайн (за 10 мин.): 6

Видоизмененный углерод / Altered Carbon [S01] (2018) BDRip 1080p [HEVC] 8 bit от HANNIBAL

HEVC
8 bit
Обложка Видоизмененный углерод / Altered Carbon [S01] (2018) BDRip 1080p [HEVC] 8 bit от HANNIBAL Год: 2018
Страна: США
Студия: Netflix, Mythology Entertainment, Skydance Television
Жанр: Боевик, Фантастика, Триллер
Продолжительность: 10 x ~ 00:58:00

Режиссер: Ута Бризвитц, Питер Хор, Ник Харран
В ролях: Юэль Киннаман, Джеймс Пьюрфой, Марта Игареда, Крис Коннер, Антонио Марциале, Кристин Леман, Хиро Канагава, Валид Зуэйтер, Марлин Форте, Алика Аутран, Хэйли Лоу, Тич Грант, Заф Пару, Тамара Тейлор, Адам Буш, Дичен Лакмэн, Лиза Чандлер, Ато Эссонда, Байрон Манн, Треу Трэн, Рене Голдсберри

Описание: Земля, XXVII век. Мир, в котором появилась возможность «сгружать» человеческое сознание и личность из одного тела в другое. Идеальный мир и для преступников, и для полицейских, и для армии, но вряд ли идеальный для бывшего военного спецназовца Такеси Ковача, которого миллиардер Бэнкрофт нанял для расследования гибели одного из своих тел. Внешне — явное самоубийство. В действительности — явное убийство. Вот только воспоминания об убийце уничтожены вместе с телом-клоном.


Видео: 1920x1080, 1800 Kbps
Аудио1: AC3, 6 ch, 384 Kbps - РусскийРусский, Профессиональный многоголосый (NewStudio)
Аудио2: AC3, 6 ch, 384 Kbps - РусскийРусский, Профессиональный многоголосый (LostFilm)
Субтитры: нет

Как за пару секунд удалить ненужные аудиодорожки и субтитры (Внимание! После удаления вы не сможете поддержать раздачу)

Медиаинфо
General
Unique ID : 116331871851276677340567162561189922817 (0x5784B41BC1235C0B49D3A60EC7904801)
Complete name : G:\[HEVC]\Altered Carbon [HEVC]\Altered.Carbon.s01e03..mkv
Format : Matroska
Format version : Version 4 / Version 2
File size : 951 MiB
Duration : 51 min 7 s
Overall bit rate : 2 600 kb/s
Movie name : Altered Carbon s01e03 @ NNM-Club
Writing application : XviD4PSP 7.0.444 DAILY
Writing library : Lavf57.71.100
ErrorDetectionType : Per level 1
ENCODING_INFO : MATROSKA,WEBM > MKV / H264 > X265 ABR 1900kbps Medium / AC3 > AC3 CBR 384kbps / AC3 > AC3 CBR 384kbps

Video
ID : 1
Format : HEVC
Format/Info : High Efficiency Video Coding
Format profile : Main@L5.1@Main
Codec ID : V_MPEGH/ISO/HEVC
Duration : 51 min 7 s
Bit rate : 1 780 kb/s
Width : 1 920 pixels
Height : 1 080 pixels
Display aspect ratio : 2.000
Frame rate mode : Constant
Frame rate : 23.976 (24000/1001) FPS
Color space : YUV
Chroma subsampling : 4:2:0
Bit depth : 8 bits
Bits/(Pixel*Frame) : 0.036
Stream size : 651 MiB (68%)
Writing library : x265 2.6+42-52782aeb2081:[Windows][clang 7.0.0][64 bit] 8bit
Encoding settings : cpuid=1050111 / frame-threads=5 / wpp / no-pmode / no-pme / no-psnr / no-ssim / log-level=3 / input-csp=1 / input-res=1920x1080 / interlace=0 / total-frames=0 / level-idc=51 / high-tier=1 / uhd-bd=0 / ref=3 / allow-non-conformance / no-repeat-headers / annexb / no-aud / no-hrd / info / hash=0 / no-temporal-layers / open-gop / min-keyint=24 / keyint=240 / gop-lookahead=0 / bframes=4 / b-adapt=2 / b-pyramid / bframe-bias=0 / rc-lookahead=20 / lookahead-slices=6 / scenecut=40 / radl=0 / no-intra-refresh / ctu=64 / min-cu-size=8 / no-rect / no-amp / max-tu-size=32 / tu-inter-depth=1 / tu-intra-depth=1 / limit-tu=0 / rdoq-level=0 / dynamic-rd=0.00 / no-ssim-rd / signhide / no-tskip / nr-intra=0 / nr-inter=0 / no-constrained-intra / strong-intra-smoothing / max-merge=2 / limit-refs=3 / no-limit-modes / me=1 / subme=2 / merange=57 / temporal-mvp / weightp / no-weightb / no-analyze-src-pics / deblock=-3:-3 / sao / no-sao-non-deblock / rd=3 / no-early-skip / rskip / no-fast-intra / no-tskip-fast / no-cu-lossless / no-b-intra / no-splitrd-skip / rdpenalty=0 / psy-rd=2.00 / psy-rdoq=0.00 / no-rd-refine / no-lossless / cbqpoffs=0 / crqpoffs=0 / rc=abr / bitrate=1900 / qcomp=0.60 / qpstep=4 / stats-write=0 / stats-read=0 / vbv-maxrate=20000 / vbv-bufsize=14285 / vbv-init=0.9 / ipratio=1.40 / pbratio=1.30 / aq-mode=1 / aq-strength=1.00 / cutree / zone-count=0 / no-strict-cbr / qg-size=32 / no-rc-grain / qpmax=69 / qpmin=0 / no-const-vbv / sar=255 / sar-width / : / sar-height=9:8 / overscan=0 / videoformat=5 / range=0 / colorprim=2 / transfer=2 / colormatrix=2 / chromaloc=0 / display-window=0 / max-cll=0,0 / min-luma=0 / max-luma=255 / log2-max-poc-lsb=8 / vui-timing-info / vui-hrd-info / slices=1 / no-opt-qp-pps / no-opt-ref-list-length-pps / no-multi-pass-opt-rps / scenecut-bias=0.05 / no-opt-cu-delta-qp / no-aq-motion / no-hdr / no-hdr-opt / no-dhdr10-opt / analysis-reuse-level=5 / scale-factor=0 / refine-intra=0 / refine-inter=0 / refine-mv=0 / no-limit-sao / ctu-info=0 / no-lowpass-dct / refine-mv-type=0 / copy-pic=1
Language : English
Default : Yes
Forced : No

Audio #1
ID : 2
Format : AC-3
Format/Info : Audio Coding 3
Codec ID : A_AC3
Duration : 51 min 7 s
Bit rate mode : Constant
Bit rate : 384 kb/s
Channel(s) : 6 channels
Channel positions : Front: L C R, Side: L R, LFE
Sampling rate : 48.0 kHz
Frame rate : 31.250 FPS (1536 SPF)
Bit depth : 16 bits
Compression mode : Lossy
Stream size : 140 MiB (15%)
Title : NewStudio
Language : Russian
Service kind : Complete Main
Default : Yes
Forced : No

Audio #2
ID : 3
Format : AC-3
Format/Info : Audio Coding 3
Codec ID : A_AC3
Duration : 51 min 7 s
Bit rate mode : Constant
Bit rate : 384 kb/s
Channel(s) : 2 channels
Channel positions : Front: L R
Sampling rate : 48.0 kHz
Frame rate : 31.250 FPS (1536 SPF)
Bit depth : 16 bits
Compression mode : Lossy
Stream size : 140 MiB (15%)
Title : LostFilm
Language : Russian
Service kind : Complete Main
Default : No
Forced : No
Загрузка...Cкриншот1 Видоизмененный углерод / Altered Carbon [S01] (2018) BDRip 1080p [HEVC] 8 bit от HANNIBALЗагрузка...Cкриншот2 Видоизмененный углерод / Altered Carbon [S01] (2018) BDRip 1080p [HEVC] 8 bit от HANNIBALЗагрузка...Cкриншот3 Видоизмененный углерод / Altered Carbon [S01] (2018) BDRip 1080p [HEVC] 8 bit от HANNIBALЗагрузка...Cкриншот4 Видоизмененный углерод / Altered Carbon [S01] (2018) BDRip 1080p [HEVC] 8 bit от HANNIBAL
Сэмпл Торрент🧲 Магнет

Рейтинги КП и IMDB, кнопки "Позвать в чате" и "Спасибо", а также мультитрекерная статистика сидов и пиров доступны только зарегистрированным/авторизованным пользователям!

Файлы: 10
  • Altered Carbon [HEVC]
    • Altered.Carbon.s01e01..mkv   1.16 ГБ
    • Altered.Carbon.s01e02..mkv   1.03 ГБ
    • Altered.Carbon.s01e03..mkv   950.66 МБ
    • Altered.Carbon.s01e04..mkv   914.99 МБ
    • Altered.Carbon.s01e05..mkv   1010.71 МБ
    • Altered.Carbon.s01e06..mkv   894.29 МБ
    • Altered.Carbon.s01e07..mkv   1.23 ГБ
    • Altered.Carbon.s01e08..mkv   966.27 МБ
    • Altered.Carbon.s01e09..mkv   988.97 МБ
    • Altered.Carbon.s01e10..mkv   951.28 МБ
Поблагодарили: 5
Dr_Daemon, inoy, pixel68, stormbringer, volodya131
HANNIBAL
0207021 (10)  9.94 ГБ

Добавление нового комментария

Добавление комментариев доступно только зарегистрированным/авторизованным пользователям.