💬 Мини-чат

Для тех, кому интересен процесс переделки сайта - https://rips.club/changelog.html (обновлен 22.02.2024)
OldGamerz1M4p9i0, и этот релиз скачался
Adminatomicheart, встал, но у Вас в профиле не видно. Вам бы перекачать.
OldGamerz1M4p9i0, Хан Соло скачался, но релиз, который был на руторе, там аудиодорожек меньше, чем тут, а видеоряд тот же. Попробуйте оттуда, я пока что сидирую.
OldGamerХан Соло откуда-то по чайной ложке в час скачивается, за сутки 50%, наблюдаем-с дальше
Adminatomicheart, завтра посмотрю, он у меня должен быть.
atomicheartРаздайте, пожалуйста, Тихое место: Дилогия / A Quiet Place: Dilogy (2018-2020) UHD-BDRip 1080p [HEVC] 10 bit [HDR] от Mr. Fox
z1M4p9i0Раздайте, пожалуйста, Хан Соло: Звёздные войны. Истории / Solo: A Star Wars Story (2018) [Локализованная версия] BDRip 1080p [HEVC] 10 bit от Cthulhu
z1M4p9i0Раздайте, пожалуйста, Терминатор: Тёмные судьбы / Terminator: Dark Fate (2019) [iTunes] UHD-BDRip 1440p [HEVC] 10 bit от HANNIBAL
OldGamerKeynol, честно говоря, пока что не планировалось, так как у нас есть отличный рип этого фильма
KeynolПриветствую! А можно сделать HEVC 10 bit на Трон Наследие Hybrid ? там файл на 31 гиг :-( на рутрекере. Хороший, но очень массивный..
  • OldGamer
  • bronsonw200
  • InSpector
  • pmihail99
  • Тренер по Йоге
Отправка сообщений доступна только зарегистрированным/авторизованным пользователям.
Онлайн (за 10 мин.): 5

Within Temptation & The Metropole Orchestra: Black Symphony (2008) BDRip 1080p [HEVC] 8 bit от Cthulhu

HEVC
8 bit
Обложка Within Temptation & The Metropole Orchestra: Black Symphony (2008) BDRip 1080p [HEVC] 8 bit от Cthulhu Год: 2008
Страна: Нидерланды
Студия: GUN Records, Sony BMG Music Entertainment
Жанр: Музыка
Продолжительность: 02:06:33

Состав:
Sharon Janny den Adel – Вокал
Robert Westerholt - Гитара
Rudolf Adrianus Jolie – Гитара
Jeroen van Veen – Бас
Martinus Johannes Everardus Spierenburg – Клавишные
Stephen van Haestregt – Ударные

Описание: Видео версия грандиозного концерта, прошедшего 7 февраля 2008 года в городе Роттердам. Помимо самой группы в этом действе участвовал орекстр Metropole из 60 человек и классического хора из 35 человек. Концерт проходил на фоне экрана площадью 400 квадратных метров и сопровождался оглушительной пиротехникой, световыми эффектами и сменами костюмов. Съемки концерта производились с 14 HD камер. Black Symphony — концертный альбом и DVD голландской симфоник-метал группы Within Temptation.

Треклист
01. Overture
02. Jillian (I'd Give My Heart)
03. The Howling
04. Stand My Ground
05. The Cross
06. What Have You Done (feat. Keith Caputo)
07. Hand Of Sorrow
08. The Heart Of Everything
09. Forgiven
10. Somewhere (feat. Anneke van Giersbergen)
11. The Swan Song
12. Memories
13. Our Solemn Hour
14. The Other Half (Of Me) (feat. George Oosthoek)
15. Frozen
16. The Promise
17. Angels
18. Mother Earth
19. The Truth Beneath The Rose
20. Deceiver Of Fools
21. All I Need
22. Ice Queen

Видео: 1916x1080, 7117 Kbps
Аудио1: AC3, 6 ch, 448 Kbps - АнглийскийАнглийский
Аудио2: DTS, 6 ch, 1509 Kbps - АнглийскийАнглийский - отдельно
Субтитры: нет

Как за пару секунд удалить ненужные аудиодорожки и субтитры (Внимание! После удаления вы не сможете поддержать раздачу)

Медиаинфо
Общее
Уникальный идентификатор : 210293799353552065787048624653010177405 (0x9E351CCEB9FEB16B97667975310B8D7D)
Полное имя : S:\MUSICAL\Within Temptation & Metropole Orchestra - Black Symphony (2008)\Within Temptation & Metropole Orchestra - Black Symphony (2008) BDRip 1080p [HEVC].mkv
Формат : Matroska
Версия формата : Version 4 / Version 2
Размер файла : 6,69 Гбайт
Продолжительность : 2 ч. 6 м.
Общий поток : 7568 Кбит/сек
Дата кодирования : UTC 2017-10-04 17:44:00
Программа кодирования : mkvmerge v13.0.0 ('The Juggler') 64bit
Библиотека кодирования : libebml v1.3.4 + libmatroska v1.4.5
Обложка : Yes
Attachments : cover.jpg

Видео
Идентификатор : 1
Формат : HEVC
Формат/Информация : High Efficiency Video Coding
Профиль формата : Main@L4.1@High
Идентификатор кодека : V_MPEGH/ISO/HEVC
Продолжительность : 2 ч. 6 м.
Битрейт : 7117 Кбит/сек
Ширина : 1916 пикселей
Высота : 1080 пикселей
Соотношение сторон : 16:9
Режим частоты кадров : Постоянный
Частота кадров : 29,970 (30000/1001) кадров/сек
Цветовое пространство : YUV
Субдискретизация насыщенности : 4:2:0
Битовая глубина : 8 бит
Бит/(Пиксели*Кадры) : 0.115
Размер потока : 6,29 Гбайт (94%)
Библиотека кодирования : x265 2.5+17-f8ae7afc1f61:[Windows][GCC 7.1.0][64 bit] 8bit
Настройки программы : cpuid=1050111 / frame-threads=5 / numa-pools=4 / wpp / no-pmode / no-pme / no-psnr / no-ssim / log-level=3 / input-csp=1 / input-res=1916x1080 / interlace=0 / total-frames=0 / level-idc=41 / high-tier=1 / uhd-bd=0 / ref=4 / no-allow-non-conformance / no-repeat-headers / annexb / no-aud / no-hrd / info / hash=0 / no-temporal-layers / open-gop / min-keyint=23 / keyint=250 / bframes=8 / b-adapt=2 / b-pyramid / bframe-bias=0 / rc-lookahead=40 / lookahead-slices=6 / scenecut=40 / no-intra-refresh / ctu=64 / min-cu-size=8 / no-rect / no-amp / max-tu-size=32 / tu-inter-depth=2 / tu-intra-depth=2 / limit-tu=0 / rdoq-level=0 / dynamic-rd=0.00 / no-ssim-rd / signhide / no-tskip / nr-intra=0 / nr-inter=0 / no-constrained-intra / strong-intra-smoothing / max-merge=3 / limit-refs=3 / no-limit-modes / me=2 / subme=6 / merange=32 / temporal-mvp / weightp / weightb / no-analyze-src-pics / deblock=-3:-3 / no-sao / no-sao-non-deblock / rd=3 / no-early-skip / rskip / no-fast-intra / no-tskip-fast / no-cu-lossless / no-b-intra / no-splitrd-skip / rdpenalty=0 / psy-rd=2.00 / psy-rdoq=0.00 / no-rd-refine / analysis-reuse-mode=0 / no-lossless / cbqpoffs=0 / crqpoffs=0 / rc=crf / crf=19.5 / qcomp=0.60 / qpstep=4 / stats-write=0 / stats-read=0 / vbv-maxrate=50000 / vbv-bufsize=35714 / vbv-init=0.9 / crf-max=30.0 / crf-min=0.0 / ipratio=1.40 / pbratio=1.30 / aq-mode=1 / aq-strength=1.00 / cutree / zone-count=0 / no-strict-cbr / qg-size=32 / no-rc-grain / qpmax=69 / qpmin=0 / no-const-vbv / sar=1 / overscan=0 / videoformat=5 / range=0 / colorprim=1 / transfer=1 / colormatrix=1 / chromaloc=0 / display-window=0 / max-cll=0,0 / min-luma=0 / max-luma=255 / log2-max-poc-lsb=8 / vui-timing-info / vui-hrd-info / slices=1 / opt-qp-pps / opt-ref-list-length-pps / no-multi-pass-opt-rps / scenecut-bias=0.05 / no-opt-cu-delta-qp / no-aq-motion / no-hdr / no-hdr-opt / no-dhdr10-opt / analysis-reuse-level=5 / scale-factor=0 / refine-intra=0 / refine-inter=0 / refine-mv=0 / no-limit-sao / ctu-info=0
Язык : English
Default : Да
Forced : Нет
Цветовой диапазон : Limited
Основные цвета : BT.709
Характеристики трансфера : BT.709
Коэффициенты матрицы : BT.709

Аудио
Идентификатор : 2
Формат : AC-3
Формат/Информация : Audio Coding 3
Параметр Endianness формата : Big
Идентификатор кодека : A_AC3
Продолжительность : 2 ч. 6 м.
Вид битрейта : Постоянный
Битрейт : 448 Кбит/сек
Каналы : 6 каналов
Расположение каналов : Front: L C R, Side: L R, LFE
Частота : 48,0 КГц
Частота кадров : 31,250 кадров/сек (1536 SPF)
Битовая глубина : 16 бит
Метод сжатия : С потерями
Размер потока : 406 Мбайт (6%)
Язык : English
ServiceKind/String : Complete Main
Default : Да
Forced : Нет

Меню
00:00:00.000 : :Глава 1
00:07:36.956 : :Глава 2
00:12:17.603 : :Глава 3
00:18:52.297 : :Глава 4
00:23:23.668 : :Глава 5
00:28:26.037 : :Глава 6
00:33:41.019 : :Глава 7
00:39:21.559 : :Глава 8
00:45:07.738 : :Глава 9
00:50:07.170 : :Глава 10
00:54:29.332 : :Глава 11
00:58:31.407 : :Глава 12
01:02:33.783 : :Глава 13
01:07:53.602 : :Глава 14
01:12:57.072 : :Глава 15
01:17:26.875 : :Глава 16
01:25:44.172 : :Глава 17
01:29:46.514 : :Глава 18
01:35:46.273 : :Глава 19
01:43:22.162 : :Глава 20
01:51:02.922 : :Глава 21
01:56:04.757 : :Глава 22
Загрузка...Cкриншот1 Within Temptation & The Metropole Orchestra: Black Symphony (2008) BDRip 1080p [HEVC] 8 bit от CthulhuЗагрузка...Cкриншот2 Within Temptation & The Metropole Orchestra: Black Symphony (2008) BDRip 1080p [HEVC] 8 bit от CthulhuЗагрузка...Cкриншот3 Within Temptation & The Metropole Orchestra: Black Symphony (2008) BDRip 1080p [HEVC] 8 bit от CthulhuЗагрузка...Cкриншот4 Within Temptation & The Metropole Orchestra: Black Symphony (2008) BDRip 1080p [HEVC] 8 bit от Cthulhu
Торрент🧲 Магнет

Рейтинги КП и IMDB, кнопки "Позвать в чате" и "Спасибо", а также мультитрекерная статистика доступны только зарегистрированным/авторизованным пользователям!

Файлы: 2
  • Within Temptation & Metropole Orchestra - Black Symphony (2008)
    • DTS, 6 ch, 1509 Кбит.с.dts   1.33 ГБ
    • Within Temptation & Metropole Orchestra - Black Symphony (2008) BDRip 1080p [HEVC].mkv   6.69 ГБ
Поблагодарили: 2
375509, misharev1970
Cthulhu
09000 (2)  8.02 ГБ

Добавление нового комментария

Добавление комментариев доступно только зарегистрированным/авторизованным пользователям.