💬 Мини-чат

hunterА, да, и еще и люди, которые думают, что им все должны.
hunterrodina_45, Это все держится на энтузиазме и доброй воле делающих рипы и раздающих. Поэтому если хочется скачать, нужно ПРОСИТЬ, а не возмущатся. Так как либо много скачавших на раздаче, либо винты по 20ТБ . Однако многовато, как для хобби.
AdminПоздравляем всех девушек с международным женским днем! Берегите честь и достоинство. Именно они делают девушку красивой.
HANNIBALADVOKAT69, это не мой хам ))))
AdminПри том, что для нас всех это пока что хобби.
AdminADVOKAT69, некоторые думают, будто своими скачиваниями приносят нам пользу, вот и возмущаются.
ADVOKAT69и здесь хамы появились!с того сайта что-ли?
AdminПоддерживайте раздачи, раз не хотите, чтобы они были мертвы.
Adminrodina_45, зачем нам удалять? Вдруг оживут.
rodina_45какого хера половина torrent просто мертвы удалите их
rodina_45Раздайте, пожалуйста, Царевна-лягушка (1954) BDRip 1080p [HEVC] 10 bit от ADVOKAT69
joker63😪
HANNIBALС ГЛУБОЧАЙШИМИ СКОРБЬЮ И СОЖАЛЕНИЕМ СООБЩАЕМ ВАМ, ЧТО СЕГОДНЯ ОТ ОСЛОЖНЕНИЙ ВИРУСНОЙ ПНЕВМОНИИ, РАЗВИВШЕЙСЯ НА ФОНЕ ТЯЖЁЛОЙ ХРОНИЧЕСКОЙ ОБСТРУКТИВНОЙ БОЛЕЗНИ ЛЁГКИХ, УМЕР ИЗВЕСТНЫЙ АВТОР ВЫСОКО ЦЕНИМЫХ ИГРОВЫХ РЕПАКОВ, ИЗВЕСТНЫЙ В СЕТИ КАК XATAB.. МЫ ВСЕГДА БУДЕМ ПОМНИТЬ ЕГО И ЦЕНИТЬ ЕГО ТРУД.
StarLordAdmin, понял :)
AdminStarLord, можешь оставить. потом переоформишь.
AdminStarLord, либо переоформить на другой рип, либо залить левый торрент и сразу же удалить
StarLordAdmin, сломал систему :)) Как удалить один из анонсов?
XuMuKСообщение удалено (удалил: XuMuK)
Adminjustmkr, надо смотреть трассировку по IP
Adminjustmkr, возможно обрыв в пути.
  • OldGamer
Отправка сообщений доступна только зарегистрированным/авторизованным пользователям.
Онлайн (за 10 мин.): 1

Глубокое синее море / Deep Blue Sea (1999) BDRip 1080p [HEVC] 8 bit от Cthulhu

HEVC
8 bit
Обложка Глубокое синее море / Deep Blue Sea (1999) BDRip 1080p [HEVC] 8 bit от Cthulhu Год: 1999
Страна: США, Мексика
Жанр: Фантастика, Боевик, Триллер
Продолжительность: 01:45:00

Режиссер: Ренни Харлин
В ролях: Томас Джейн, Саффрон Берроуз, Кул Джей, Майкл Рапапорт, Стеллан Скарсгард, Сэмюэл Л. Джексон, Жаклин МакКензи, Аида Туртурро, Кристос, Дэниэл Рей

Описание: Учёные подводной лаборатории «Акватика», разрабатывая препарат от болезни Альцгеймера, находят способ генетического увеличения мозга подопытных акул. Агрессивные и злобные хищники превращаются в думающих монстров-убийц, способных перехитрить своих создателей. Теперь последние пытаются справиться с разъярёнными хищниками, но спастись от острых челюстей огромных и умных акул практически невозможно…


Видео: 1920x800, 5866 Kbps
Аудио1: AC3, 6 ch, 448 Kbps - РусскийРусский, Дублированный (Лицензия)
Аудио2: AC3, 6 ch, 448 Kbps - АнглийскийАнглийский, Оригинал
Субтитры: Русские, английские

Как за пару секунд удалить ненужные аудиодорожки и субтитры (Внимание! После удаления вы не сможете поддержать раздачу)

Медиаинфо
General
Unique ID : 191547666676363953234185189839446668465 (0x901ABD1BA2F9E6C8B5542F7EB242F4B1)
Format : Matroska
Format version : Version 4 / Version 2
File size : 4.96 GiB
Duration : 1 h 45 min
Overall bit rate : 6 764 kb/s
Movie name : Deep Blue Sea (1999) BDRip 1080p [HEVC]_rip_by_Cthulhu
Encoded date : UTC 2017-10-18 15:38:53
Writing application : mkvmerge v13.0.0 ('The Juggler') 64bit
Writing library : libebml v1.3.4 + libmatroska v1.4.5
Cover : Yes
Attachments : cover2.jpg

Video
ID : 1
Format : HEVC
Format/Info : High Efficiency Video Coding
Format profile : Main@L4.1@High
Codec ID : V_MPEGH/ISO/HEVC
Duration : 1 h 45 min
Bit rate : 5 866 kb/s
Width : 1 920 pixels
Height : 800 pixels
Display aspect ratio : 2.40:1
Frame rate mode : Constant
Frame rate : 23.976 (24000/1001) FPS
Color space : YUV
Chroma subsampling : 4:2:0
Bit depth : 8 bits
Bits/(Pixel*Frame) : 0.159
Stream size : 4.30 GiB (87%)
Writing library : x265 2.5+27-0e168bdeb48b:[Windows][GCC 7.1.0][64 bit] 8bit
Encoding settings : cpuid=1050111 / frame-threads=5 / numa-pools=4 / wpp / no-pmode / no-pme / no-psnr / no-ssim / log-level=3 / input-csp=1 / input-res=1920x800 / interlace=0 / total-frames=0 / level-idc=41 / high-tier=1 / uhd-bd=0 / ref=4 / no-allow-non-conformance / no-repeat-headers / annexb / no-aud / no-hrd / info / hash=0 / no-temporal-layers / open-gop / min-keyint=23 / keyint=250 / bframes=10 / b-adapt=2 / b-pyramid / bframe-bias=0 / rc-lookahead=40 / lookahead-slices=5 / scenecut=40 / no-intra-refresh / ctu=64 / min-cu-size=8 / no-rect / no-amp / max-tu-size=32 / tu-inter-depth=2 / tu-intra-depth=2 / limit-tu=0 / rdoq-level=0 / dynamic-rd=0.00 / no-ssim-rd / signhide / no-tskip / nr-intra=0 / nr-inter=0 / no-constrained-intra / strong-intra-smoothing / max-merge=3 / limit-refs=3 / no-limit-modes / me=2 / subme=7 / merange=32 / temporal-mvp / weightp / weightb / no-analyze-src-pics / deblock=-3:-3 / no-sao / no-sao-non-deblock / rd=3 / no-early-skip / rskip / no-fast-intra / no-tskip-fast / no-cu-lossless / no-b-intra / no-splitrd-skip / rdpenalty=0 / psy-rd=2.00 / psy-rdoq=0.00 / no-rd-refine / analysis-reuse-mode=0 / no-lossless / cbqpoffs=0 / crqpoffs=0 / rc=crf / crf=19.0 / qcomp=0.60 / qpstep=4 / stats-write=0 / stats-read=0 / vbv-maxrate=50000 / vbv-bufsize=35714 / vbv-init=0.9 / crf-max=30.0 / crf-min=0.0 / ipratio=1.40 / pbratio=1.30 / aq-mode=2 / aq-strength=1.00 / cutree / zone-count=0 / no-strict-cbr / qg-size=32 / no-rc-grain / qpmax=69 / qpmin=0 / no-const-vbv / sar=1 / overscan=0 / videoformat=5 / range=0 / colorprim=1 / transfer=1 / colormatrix=1 / chromaloc=0 / display-window=0 / max-cll=0,0 / min-luma=0 / max-luma=255 / log2-max-poc-lsb=8 / vui-timing-info / vui-hrd-info / slices=1 / opt-qp-pps / opt-ref-list-length-pps / no-multi-pass-opt-rps / scenecut-bias=0.05 / no-opt-cu-delta-qp / no-aq-motion / no-hdr / no-hdr-opt / no-dhdr10-opt / analysis-reuse-level=5 / scale-factor=0 / refine-intra=0 / refine-inter=0 / refine-mv=0 / no-limit-sao / ctu-info=0
Language : English
Default : Yes
Forced : No
Color range : Limited
Color primaries : BT.709
Transfer characteristics : BT.709
Matrix coefficients : BT.709

Audio #1
ID : 2
Format : AC-3
Format/Info : Audio Coding 3
Format settings, Endianness : Big
Codec ID : A_AC3
Duration : 1 h 45 min
Bit rate mode : Constant
Bit rate : 448 kb/s
Channel(s) : 6 channels
Channel positions : Front: L C R, Side: L R, LFE
Sampling rate : 48.0 kHz
Frame rate : 31.250 FPS (1536 SPF)
Bit depth : 16 bits
Compression mode : Lossy
Stream size : 336 MiB (7%)
Title : Дублированный 5.1 (Лицензия)
Language : Russian
Service kind : Complete Main
Default : Yes
Forced : No

Audio #2
ID : 3
Format : AC-3
Format/Info : Audio Coding 3
Format settings, Endianness : Big
Codec ID : A_AC3
Duration : 1 h 45 min
Bit rate mode : Constant
Bit rate : 448 kb/s
Channel(s) : 6 channels
Channel positions : Front: L C R, Side: L R, LFE
Sampling rate : 48.0 kHz
Frame rate : 31.250 FPS (1536 SPF)
Bit depth : 16 bits
Compression mode : Lossy
Stream size : 336 MiB (7%)
Title : Английский 5.1 (Оригинал)
Language : English
Service kind : Complete Main
Default : No
Forced : No

Text #1
ID : 4
Format : UTF-8
Codec ID : S_TEXT/UTF8
Codec ID/Info : UTF-8 Plain Text
Duration : 1 h 37 min
Bit rate : 54 b/s
Count of elements : 757
Stream size : 38.7 KiB (0%)
Language : Russian
Default : Yes
Forced : No

Text #2
ID : 5
Format : UTF-8
Codec ID : S_TEXT/UTF8
Codec ID/Info : UTF-8 Plain Text
Duration : 1 h 44 min
Bit rate : 35 b/s
Count of elements : 868
Stream size : 27.3 KiB (0%)
Language : English
Default : No
Forced : No

Menu
00:00:00.000 : :Глава 1
00:03:54.525 : :Глава 2
00:07:07.844 : :Глава 3
00:10:46.646 : :Глава 4
00:13:23.010 : :Глава 5
00:15:16.707 : :Глава 6
00:18:30.359 : :Глава 7
00:23:19.189 : :Глава 8
00:29:09.914 : :Глава 9
00:33:35.805 : :Глава 10
00:35:51.315 : :Глава 11
00:38:29.348 : :Глава 12
00:40:15.329 : :Глава 13
00:43:01.745 : :Глава 14
00:46:54.394 : :Глава 15
00:50:59.389 : :Глава 16
00:54:42.570 : :Глава 17
00:57:23.731 : :Глава 18
01:01:41.364 : :Глава 19
01:04:23.943 : :Глава 20
01:08:35.361 : :Глава 21
01:12:09.867 : :Глава 22
01:15:13.091 : :Глава 23
01:16:08.814 : :Глава 24
01:18:00.509 : :Глава 25
01:19:55.749 : :Глава 26
01:23:44.352 : :Глава 27
01:26:14.502 : :Глава 28
01:28:44.819 : :Глава 29
01:31:19.056 : :Глава 30
01:33:42.158 : :Глава 31
01:35:31.058 : :Глава 32
01:37:36.892 : :Глава 33
01:45:00.085 : :Глава 34
Загрузка...Cкриншот1 Глубокое синее море / Deep Blue Sea (1999) BDRip 1080p [HEVC] 8 bit от CthulhuЗагрузка...Cкриншот2 Глубокое синее море / Deep Blue Sea (1999) BDRip 1080p [HEVC] 8 bit от CthulhuЗагрузка...Cкриншот3 Глубокое синее море / Deep Blue Sea (1999) BDRip 1080p [HEVC] 8 bit от CthulhuЗагрузка...Cкриншот4 Глубокое синее море / Deep Blue Sea (1999) BDRip 1080p [HEVC] 8 bit от Cthulhu
Торрент🧲 Магнет

Рейтинги КП и IMDB, кнопки "Позвать в чате" и "Спасибо", а также мультитрекерная статистика сидов и пиров доступны только зарегистрированным/авторизованным пользователям!

Файлы: 1
  • Deep Blue Sea (1999) BDRip 1080p [HEVC].mkv   4.96 ГБ
Поблагодарили: 13
2ps63, 7654321, A1eksandr1, brukvalub, cnn, davidoff_k4, e7e1, igor3176, mr_nikitin, NoMaD, runya, SaN161NeK, VardO
Cthulhu
2255004.96 ГБ

Добавление нового комментария

Добавление комментариев доступно только зарегистрированным/авторизованным пользователям.
Аватар не указан
  cnn  
Благодарю за Челюсти если есть Анаконда, Призрак и тьма, Лейк плесид залейте тоже
Аватар не указан
  cnn  
Спасибо за фильм, если есть Челюсти все части тоже залейте