💬 Мини-чат

BrooklynOldGamer, Ок, спасибо, качаю.
OldGamerBrooklyn, они все на раздаче пока что
BrooklynOldGamer, Пораздавайте, пожалуйста, все сезоны сериала "Гримм" ближайшие 3 дня, очень хочу их забрать. Качество отличное. Заранее Благодарен.
StarLordСообщение удалено (удалил: StarLord)
OldGamerвыводить
mafo2Admin, можно вывести, наглядно будет
StarLordAdmin, +
AdminНадпись HDR выводить на обложку?
OldGamerGiggalo, но лучше всего вообще не затрагивайте этот ключ, по умолчанию будет установлено оптимальное значение
OldGamerGiggalo, но если уж очень хочется то пишите --frame-threads 3
OldGamerGiggalo, а зачем его менять?) нужное значение устанавливается автоматически
GiggaloДобрый вечер всем! OldGamer Покажи пожалуйста почему когда пишу в командной строке frame-threads=3 он не меняется. Какой там стоит 13 он его и держит, а ругие установки спокойно меняет?
AdminStarLord, спасибо. Пока сойдет.
StarLordAdmin, ага, вижу
StarLordAdmin, а как должно брать?
AdminStarLord, ты шаришь?
AdminStarLord, у меня сейчас такая, но с точками беда. Доработать бы (https?://([-\w\.]+)+(:\d+)?(/([-\w/_:%]*(\.\w+)*(\?\S+)?)?)?)
AdminStarLord, скрины в bb некорректно берет
StarLordwww, ftp(s), http(s), #, :, &
StarLordAdmin, все мои кейсы покрыла
  • and50
  • InSpector
  • moonson
  • NoMaD
  • VadimM
Отправка сообщений доступна только зарегистрированным/авторизованным пользователям.
Онлайн (за 10 мин.): 5

Оно приходит ночью / It Comes at Night (2017) [iTunes] BDRip 1080p [HEVC] 10 bit от Cthulhu

HEVC
10 bit
Обложка Оно приходит ночью / It Comes at Night (2017) [iTunes] BDRip 1080p [HEVC] 10 bit от Cthulhu Год: 2017
Страна: США
Студия: A24, Animal Kingdom
Жанр: Ужасы, Детектив, Драма
Продолжительность: 01:31:37

Режиссер: Трей Эдвард Шульц
В ролях: Джоэл Эдгертон, Кристофер Эбботт, Кармен Эджого, Райли Кио, Келвин Харрисон, Гриффин Роберт Фолкнер, Дэвид Пендлтон, Мики, Чейз Джолиет, Мик О’Рурк

Описание: Цивилизацию поражает зловещая эпидемия, превращающая инфицированных в чудовищных монстров. Мир погружается в невыносимый ужас. Спасаясь от гибели, отец прячет свою семью в заброшенном доме в чаще леса. Однажды на пороге дома появляются незнакомцы.


Видео: 1920x804, 5536 Kbps
Аудио1: AC3, 6 ch, 384 Kbps - РусскийРусский, Дублированный (iTunes)
Аудио2: AC3, 6 ch, 448 Kbps - АнглийскийАнглийский, Оригинал
Субтитры: Русские, английские

Как за пару секунд удалить ненужные аудиодорожки и субтитры (Внимание! После удаления вы не сможете поддержать раздачу)

Медиаинфо
Общее
Уникальный идентификатор : 193074374189221583511903728800402078769 (0x9140C59990F4C915BF9285102D3D7C31)
Полное имя : T:\HDFILMS\It Comes at Night (2017) BDRip 1080p [HEVC] 10Bit.mkv
Формат : Matroska
Версия формата : Version 4 / Version 2
Размер файла : 4,08 Гбайт
Продолжительность : 1 ч. 31 м.
Общий поток : 6370 Кбит/сек
Дата кодирования : UTC 2017-09-12 17:14:42
Программа кодирования : mkvmerge v13.0.0 ('The Juggler') 64bit
Библиотека кодирования : libebml v1.3.4 + libmatroska v1.4.5
Обложка : Yes
Attachments : cover.jpg

Видео
Идентификатор : 1
Формат : HEVC
Формат/Информация : High Efficiency Video Coding
Профиль формата : Main 10@L4.1@High
Идентификатор кодека : V_MPEGH/ISO/HEVC
Продолжительность : 1 ч. 31 м.
Битрейт : 5536 Кбит/сек
Ширина : 1920 пикселей
Высота : 804 пикселя
Соотношение сторон : 2,40:1
Режим частоты кадров : Постоянный
Частота кадров : 23,976 (24000/1001) кадра/сек
Цветовое пространство : YUV
Субдискретизация насыщенности : 4:2:0
Битовая глубина : 10 бит
Бит/(Пиксели*Кадры) : 0.150
Размер потока : 3,54 Гбайт (87%)
Библиотека кодирования : x265 2.5+16-bac53338585c:[Windows][GCC 7.1.0][64 bit] 10bit
Настройки программы : cpuid=1050111 / frame-threads=5 / numa-pools=4 / wpp / no-pmode / no-pme / no-psnr / no-ssim / log-level=3 / input-csp=1 / input-res=1920x804 / interlace=0 / total-frames=0 / level-idc=41 / high-tier=1 / uhd-bd=0 / ref=5 / no-allow-non-conformance / no-repeat-headers / annexb / no-aud / no-hrd / info / hash=0 / no-temporal-layers / open-gop / min-keyint=23 / keyint=250 / bframes=10 / b-adapt=2 / b-pyramid / bframe-bias=0 / rc-lookahead=40 / lookahead-slices=5 / scenecut=40 / no-intra-refresh / ctu=64 / min-cu-size=8 / no-rect / no-amp / max-tu-size=32 / tu-inter-depth=2 / tu-intra-depth=2 / limit-tu=0 / rdoq-level=0 / dynamic-rd=0.00 / no-ssim-rd / signhide / no-tskip / nr-intra=0 / nr-inter=0 / no-constrained-intra / strong-intra-smoothing / max-merge=3 / limit-refs=3 / no-limit-modes / me=2 / subme=6 / merange=32 / temporal-mvp / weightp / weightb / no-analyze-src-pics / deblock=-3:-3 / no-sao / no-sao-non-deblock / rd=3 / no-early-skip / rskip / no-fast-intra / no-tskip-fast / no-cu-lossless / no-b-intra / no-splitrd-skip / rdpenalty=0 / psy-rd=2.00 / psy-rdoq=0.00 / no-rd-refine / analysis-reuse-mode=0 / no-lossless / cbqpoffs=0 / crqpoffs=0 / rc=crf / crf=18.5 / qcomp=0.60 / qpstep=4 / stats-write=0 / stats-read=0 / vbv-maxrate=50000 / vbv-bufsize=35714 / vbv-init=0.9 / crf-max=30.0 / crf-min=0.0 / ipratio=1.40 / pbratio=1.30 / aq-mode=2 / aq-strength=1.00 / cutree / zone-count=0 / no-strict-cbr / qg-size=32 / no-rc-grain / qpmax=69 / qpmin=0 / no-const-vbv / sar=1 / overscan=0 / videoformat=5 / range=0 / colorprim=2 / transfer=2 / colormatrix=2 / chromaloc=0 / display-window=0 / max-cll=0,0 / min-luma=0 / max-luma=1023 / log2-max-poc-lsb=8 / vui-timing-info / vui-hrd-info / slices=1 / opt-qp-pps / opt-ref-list-length-pps / no-multi-pass-opt-rps / scenecut-bias=0.05 / no-opt-cu-delta-qp / no-aq-motion / no-hdr / no-hdr-opt / no-dhdr10-opt / analysis-reuse-level=5 / scale-factor=0 / refine-intra=0 / refine-inter=0 / refine-mv=0 / no-limit-sao / ctu-info=0
Язык : English
Default : Да
Forced : Нет

Аудио #1
Идентификатор : 2
Формат : AC-3
Формат/Информация : Audio Coding 3
Параметр Endianness формата : Big
Идентификатор кодека : A_AC3
Продолжительность : 1 ч. 31 м.
Вид битрейта : Постоянный
Битрейт : 384 Кбит/сек
Каналы : 6 каналов
Расположение каналов : Front: L C R, Side: L R, LFE
Частота : 48,0 КГц
Частота кадров : 31,250 кадров/сек (1536 SPF)
Битовая глубина : 16 бит
Метод сжатия : С потерями
Размер потока : 252 Мбайт (6%)
Язык : Russian
ServiceKind/String : Complete Main
Default : Да
Forced : Нет

Аудио #2
Идентификатор : 3
Формат : AC-3
Формат/Информация : Audio Coding 3
Параметр Endianness формата : Big
Идентификатор кодека : A_AC3
Продолжительность : 1 ч. 31 м.
Вид битрейта : Постоянный
Битрейт : 448 Кбит/сек
Каналы : 6 каналов
Расположение каналов : Front: L C R, Side: L R, LFE
Частота : 48,0 КГц
Частота кадров : 31,250 кадров/сек (1536 SPF)
Битовая глубина : 16 бит
Метод сжатия : С потерями
Размер потока : 294 Мбайт (7%)
Язык : English
ServiceKind/String : Complete Main
Default : Нет
Forced : Нет

Текст #1
Идентификатор : 4
Формат : UTF-8
Идентификатор кодека : S_TEXT/UTF8
Идентификатор кодека/Информация : UTF-8 Plain Text
Продолжительность : 1 ч. 27 м.
Битрейт : 59 бит/сек
ElementCount : 939
Размер потока : 38,3 Кбайт (0%)
Язык : Russian
Default : Да
Forced : Нет

Текст #2
Идентификатор : 5
Формат : UTF-8
Идентификатор кодека : S_TEXT/UTF8
Идентификатор кодека/Информация : UTF-8 Plain Text
Продолжительность : 1 ч. 26 м.
Битрейт : 36 бит/сек
ElementCount : 746
Размер потока : 23,3 Кбайт (0%)
Язык : English
Default : Нет
Forced : Нет

Меню
00:00:00.000 : :Chapter 1
00:05:09.225 : :Chapter 2
00:11:16.175 : :Chapter 3
00:16:20.270 : :Chapter 4
00:24:44.399 : :Chapter 5
00:28:20.323 : :Chapter 6
00:35:04.435 : :Chapter 7
00:42:06.690 : :Chapter 8
00:47:58.792 : :Chapter 9
00:51:25.332 : :Chapter 10
00:56:15.872 : :Chapter 11
01:01:22.720 : :Chapter 12
01:07:28.127 : :Chapter 13
01:13:37.746 : :Chapter 14
01:20:18.146 : :Chapter 15
01:26:26.764 : :Chapter 16
Загрузка...Cкриншот1 Оно приходит ночью / It Comes at Night (2017) [iTunes] BDRip 1080p [HEVC] 10 bit от CthulhuЗагрузка...Cкриншот2 Оно приходит ночью / It Comes at Night (2017) [iTunes] BDRip 1080p [HEVC] 10 bit от CthulhuЗагрузка...Cкриншот3 Оно приходит ночью / It Comes at Night (2017) [iTunes] BDRip 1080p [HEVC] 10 bit от CthulhuЗагрузка...Cкриншот4 Оно приходит ночью / It Comes at Night (2017) [iTunes] BDRip 1080p [HEVC] 10 bit от Cthulhu
Торрент🧲 Магнет

Рейтинги КП и IMDB, кнопки "Позвать в чате" и "Спасибо", а также мультитрекерная статистика сидов и пиров доступны только зарегистрированным/авторизованным пользователям!

Файлы: 1
  • It Comes at Night (2017) BDRip 1080p [HEVC] 10Bit.mkv   4.08 ГБ
Поблагодарили: 12
A1eek, BarrelGun, brukvalub, davidoff_k4, e7e1, EiffeL, ivan_1965, LastSurviv0r, NoMaD, SaN161NeK, SwX8, VardO
Cthulhu
0105014.08 ГБ

Добавление нового комментария

Добавление комментариев доступно только зарегистрированным/авторизованным пользователям.