💬 Мини-чат

Убедительная просьба не обсуждать тут политику.
AdminЛёшикоБэст, вроде потихоньку идёт. Подождем, если не докачается, то встану.
AdminЛёшикоБэст, перекачайте торрент, а то в профиле не отображается ждете или уже нет
ЛёшикоБэстРаздайте, пожалуйста, Неудержимые / The Expendables (2010) [Theatrical Cut] BDRip 1080p [HEVC] 10 bit от Spartanec1308
OldGamerДа, есть.
ЛёшикоБэстДоброго вечера) Скажите пожалуйста, есть ли в планах сделать релиз дилогии "Зорро" с Антонио Бандерасом?
HANNIBALAdmin, 👍
AdminГоро, встал
ГороРаздайте, пожалуйста, Хищники / Predators (2010) BDRip 1080p [HEVC] 10 bit от HANNIBAL
AdminHANNIBAL, привет. Не помню за сколько брал, но продление в этот раз обошлось примерно в $14 со всякими комиссиями. А аренда VDS обходится примерно в $30-35 за год. Не исключено, что всё это подорожает. Пока что пожертвования с трудом покрывают расходы. Иногда если требуется и со своего кармана оплачиваю, не страшно. Прорвемся.
HANNIBALсколько сейчас стоит
HANNIBALAdmin, ПРИВЕТ
AdminНаконец-то получил банковскую карту. Продлил доменное имя (адрес сайта) на год.
  • ivan_1965
Отправка сообщений доступна только зарегистрированным/авторизованным пользователям.
Онлайн (за 10 мин.): 1

Добро пожаловать в Zомбилэнд / Zombieland (2009) BDRip 1080p [HEVC] 10 bit от montyk

HEVC
10 bit
Обложка Добро пожаловать в Zомбилэнд / Zombieland (2009) BDRip 1080p [HEVC] 10 bit от montyk Год: 2009
Страна: США
Жанр: Ужасы, Фантастика, Комедия, Приключения
Продолжительность: 01:27:42

Режиссер: Рубен Фляйшер
В ролях: Джесси Айзенберг, Вуди Харрельсон, Эмма Стоун, Эбигейл Бреслин, Билл Мюррей, Эмбер Хёрд, Дерек Граф, Aquavian Abel, Сизар Агирр, Джейкоб Дж. Экинс

Описание: После нашествия зомби в США небольшая группа выживших скитается по стране от побережья к побережью, сражаясь с живыми мертвецами. Они решают остановиться в парке развлечений, надеясь, что там будут в безопасности.


Видео: 1920x800, 8015 Kbps
Аудио1: AC3, 6 ch, 640 Kbps - РусскийРусский, Дублированный (Blu-ray CEE)
Аудио2: AC3, 6 ch, 640 Kbps - АнглийскийАнглийский, Оригинал
Субтитры: Русские (форсированные, полные), английские

Как за пару секунд удалить ненужные аудиодорожки и субтитры (Внимание! После удаления вы не сможете поддержать раздачу)

Медиаинфо
General
Unique ID : 200617343594161491404776416697716977071 (0x96ED7EB454E3B9A3ADD2E41FF0CA2DAF)
Complete name : Добро пожаловать в Zомбилэнд.2009.HEVC.mkv
Format : Matroska
Format version : Version 4 / Version 2
File size : 5.70 GiB
Duration : 1h 27mn
Overall bit rate : 9 298 Kbps
Movie name : Zombieland
Encoded date : UTC 2017-04-23 13:43:55
Writing application : mkvmerge v9.5.0 ('Quiet Fire') 64bit
Writing library : libebml v1.3.4 + libmatroska v1.4.5

Video
ID : 1
Format : HEVC
Format/Info : High Efficiency Video Coding
Format profile : Main 10@L4@Main
Codec ID : V_MPEGH/ISO/HEVC
Duration : 1h 27mn
Bit rate : 8 016 Kbps
Width : 1 920 pixels
Height : 800 pixels
Display aspect ratio : 2.40:1
Frame rate mode : Constant
Frame rate : 23.976 (24000/1001) fps
Color space : YUV
Chroma subsampling : 4:2:0
Bit depth : 10 bits
Bits/(Pixel*Frame) : 0.218
Stream size : 4.91 GiB (86%)
Title : HEVC
Writing library : x265 2.3+27-7e137e3ae083:[Windows][GCC 5.3.1][64 bit] 10bit
Encoding settings : cpuid=1173503 / frame-threads=2 / numa-pools=4 / wpp / no-pmode / no-pme / no-psnr / no-ssim / log-level=2 / input-csp=1 / input-res=1920x800 / interlace=0 / total-frames=0 / level-idc=0 / high-tier=1 / uhd-bd=0 / ref=3 / no-allow-non-conformance / no-repeat-headers / annexb / no-aud / no-hrd / info / hash=0 / no-temporal-layers / open-gop / min-keyint=23 / keyint=250 / bframes=4 / b-adapt=2 / b-pyramid / bframe-bias=0 / rc-lookahead=30 / lookahead-slices=0 / scenecut=40 / no-intra-refresh / ctu=64 / min-cu-size=8 / no-rect / no-amp / max-tu-size=32 / tu-inter-depth=1 / tu-intra-depth=1 / limit-tu=0 / rdoq-level=2 / dynamic-rd=0.00 / signhide / no-tskip / nr-intra=0 / nr-inter=0 / no-constrained-intra / strong-intra-smoothing / max-merge=2 / limit-refs=0 / no-limit-modes / me=3 / subme=5 / merange=57 / temporal-mvp / weightp / weightb / no-analyze-src-pics / deblock=-3:-3 / no-sao / no-sao-non-deblock / rd=3 / no-early-skip / rskip / no-fast-intra / no-tskip-fast / no-cu-lossless / no-b-intra / rdpenalty=0 / psy-rd=1.00 / psy-rdoq=1.00 / no-rd-refine / analysis-mode=0 / no-lossless / cbqpoffs=0 / crqpoffs=0 / rc=crf / crf=20.0 / qcomp=0.90 / qpstep=4 / stats-write=0 / stats-read=0 / ipratio=1.40 / pbratio=1.10 / aq-mode=1 / aq-strength=1.00 / cutree / zone-count=0 / no-strict-cbr / qg-size=32 / no-rc-grain / qpmax=69 / qpmin=0 / sar=0 / overscan=0 / videoformat=5 / range=0 / colorprim=2 / transfer=2 / colormatrix=2 / chromaloc=0 / display-window=0 / max-cll=0,0 / min-luma=0 / max-luma=1023 / log2-max-poc-lsb=8 / vui-timing-info / vui-hrd-info / slices=1 / opt-qp-pps / opt-ref-list-length-pps / no-multi-pass-opt-rps / scenecut-bias=0.05 / no-opt-cu-delta-qp / aq-motion / no-hdr / no-hdr-opt / refine-level=5
Default : Yes
Forced : No

Audio #1
ID : 2
Format : AC-3
Format/Info : Audio Coding 3
Mode extension : CM (complete main)
Format settings, Endianness : Big
Codec ID : A_AC3
Duration : 1h 27mn
Bit rate mode : Constant
Bit rate : 640 Kbps
Channel(s) : 6 channels
Channel positions : Front: L C R, Side: L R, LFE
Sampling rate : 48.0 KHz
Frame rate : 31.250 fps (1536 spf)
Compression mode : Lossy
Stream size : 401 MiB (7%)
Title : Dub
Language : Russian
Default : Yes
Forced : No

Audio #2
ID : 3
Format : AC-3
Format/Info : Audio Coding 3
Mode extension : CM (complete main)
Format settings, Endianness : Big
Codec ID : A_AC3
Duration : 1h 27mn
Bit rate mode : Constant
Bit rate : 640 Kbps
Channel(s) : 6 channels
Channel positions : Front: L C R, Side: L R, LFE
Sampling rate : 48.0 KHz
Frame rate : 31.250 fps (1536 spf)
Compression mode : Lossy
Stream size : 401 MiB (7%)
Title : Original
Language : English
Default : No
Forced : No

Text #1
ID : 4
Format : UTF-8
Codec ID : S_TEXT/UTF8
Codec ID/Info : UTF-8 Plain Text
Duration : 1h 20mn
Bit rate : 2 bps
Count of elements : 23
Stream size : 1.26 KiB (0%)
Title : Forced
Language : Russian
Default : Yes
Forced : Yes

Text #2
ID : 5
Format : UTF-8
Codec ID : S_TEXT/UTF8
Codec ID/Info : UTF-8 Plain Text
Duration : 1h 21mn
Bit rate : 2 bps
Count of elements : 25
Stream size : 1.39 KiB (0%)
Title : Forced Voronine
Language : Russian
Default : No
Forced : No

Text #3
ID : 6
Format : UTF-8
Codec ID : S_TEXT/UTF8
Codec ID/Info : UTF-8 Plain Text
Duration : 1h 22mn
Bit rate : 79 bps
Count of elements : 866
Stream size : 47.9 KiB (0%)
Title : Full
Language : Russian
Default : No
Forced : No

Text #4
ID : 7
Format : UTF-8
Codec ID : S_TEXT/UTF8
Codec ID/Info : UTF-8 Plain Text
Duration : 1h 26mn
Bit rate : 92 bps
Count of elements : 969
Stream size : 58.6 KiB (0%)
Title : Full Voronine
Language : Russian
Default : No
Forced : No

Text #5
ID : 8
Format : UTF-8
Codec ID : S_TEXT/UTF8
Codec ID/Info : UTF-8 Plain Text
Duration : 1h 22mn
Bit rate : 84 bps
Count of elements : 857
Stream size : 51.0 KiB (0%)
Title : Full Goblin
Language : Russian
Default : No
Forced : No

Text #6
ID : 9
Format : UTF-8
Codec ID : S_TEXT/UTF8
Codec ID/Info : UTF-8 Plain Text
Duration : 1h 26mn
Bit rate : 49 bps
Count of elements : 893
Stream size : 31.4 KiB (0%)
Title : Full
Language : English
Default : No
Forced : No

Menu
00:00:00.000 : en:00:00:00.000
00:00:34.618 : en:00:00:34.618
00:02:19.473 : en:00:02:19.473
00:07:15.352 : en:00:07:15.352
00:16:22.732 : en:00:16:22.732
00:21:14.064 : en:00:21:14.064
00:22:20.965 : en:00:22:20.965
00:23:08.637 : en:00:23:08.637
00:23:34.705 : en:00:23:34.705
00:24:05.944 : en:00:24:05.944
00:30:50.724 : en:00:30:50.724
00:34:17.597 : en:00:34:17.597
00:46:35.167 : en:00:46:35.167
00:52:55.464 : en:00:52:55.464
01:05:54.242 : en:01:05:54.242
01:07:01.726 : en:01:07:01.726
01:11:10.641 : en:01:11:10.641
01:12:22.129 : en:01:12:22.129
01:14:24.168 : en:01:14:24.168
01:14:53.572 : en:01:14:53.572
01:17:20.302 : en:01:17:20.302
01:19:13.791 : en:01:19:13.791
01:19:46.532 : en:01:19:46.532
Загрузка...Cкриншот1 Добро пожаловать в Zомбилэнд / Zombieland (2009) BDRip 1080p [HEVC] 10 bit от montykЗагрузка...Cкриншот2 Добро пожаловать в Zомбилэнд / Zombieland (2009) BDRip 1080p [HEVC] 10 bit от montykЗагрузка...Cкриншот3 Добро пожаловать в Zомбилэнд / Zombieland (2009) BDRip 1080p [HEVC] 10 bit от montykЗагрузка...Cкриншот4 Добро пожаловать в Zомбилэнд / Zombieland (2009) BDRip 1080p [HEVC] 10 bit от montyk
Торрент🧲 Магнет

Рейтинги КП и IMDB, кнопки "Позвать в чате" и "Спасибо", а также мультитрекерная статистика доступны только зарегистрированным/авторизованным пользователям!

Файлы: 1
  • Добро пожаловать в Zомбилэнд.2009.HEVC.mkv   5.7 ГБ
Поблагодарили: 17
antaures, Blackroses1986, davidoff_k4, e7e1, kents, Kiran, ko1ob, LastSurviv0r, MIGRANT, misharev1970, mvclub, NoMaD, sam100sur, SaN161NeK, stormbringer, unnamed, ZablokQaqa
Admin
0250005.7 ГБ

Добавление нового комментария

Добавление комментариев доступно только зарегистрированным/авторизованным пользователям.