💬 Мини-чат

Giggaloнет ли у кого в планах "Давайте потанцуем" 2004
GiggaloСообщение удалено (удалил: Giggalo)
StarLordOldGamer, как дела?)
StarLordOldGamer, ура, вернулся 😄
OldGamerRezident, можете скачать этот фильм от другого релизёра, там невелика разница, а раздающие точно есть
OldGamerGiggalo, https://tsya.ru/mnemonic.html
NoMaDСообщение удалено (удалил: NoMaD)
NoMaDСообщение удалено (удалил: NoMaD)
GiggaloСообщение удалено (удалил: Giggalo)
GiggaloСообщение удалено (удалил: Giggalo)
Spartanec1308Был днём
StarLordGiggalo, наверное отрубало беднягу, целый день его нету 😅
GiggaloСообщение удалено (удалил: Giggalo)
OldGamerДоброе. Работы много, некогда на перинах валяться.
GiggaloСообщение удалено (удалил: Giggalo)
GiggaloСообщение удалено (удалил: Giggalo)
  • Giggalo
  • alexyak
  • Priest2017
Отправка сообщений доступна только зарегистрированным/авторизованным пользователям.
Онлайн (за 10 мин.): 3

В поисках галактики / Galaxy Quest (1999) BDRip 1080p [HEVC] 10 bit от montyk

HEVC
10 bit
Обложка В поисках галактики / Galaxy Quest (1999) BDRip 1080p [HEVC] 10 bit от montyk Год: 1999
Страна: США
Жанр: Фантастика, Комедия, Приключения
Продолжительность: 01:42:08

Режиссер: Дин Паризо
В ролях: Тим Аллен, Сигурни Уивер, Алан Рикман, Тони Шэлуб, Сэм Рокуэлл, Дэрил Митчелл, Энрико Колантони, Робин Сакс, Патрик Брин, Мисси Пайл

Описание: Вся Америка усаживалась к телеэкранам, когда начинался любимый зрителями сериал «В поисках Галактики». Герои этой фантастической саги были воистину народными героями. Но прошли годы, и сериал надоел телевизионным боссам. «В поисках Галактики» закрыли, а труппу распустили на все четыре стороны. Безработные бедолаги-актеры, исполнявшие главные роли астронавтов, вынуждены колесить по всей Америке, выступая на встречах с поклонниками за гроши. В общем, дела у бывших звезд обстояли, мягко говоря, весьма скверно. И тут объявляется весьма необычный поклонник сериала.


Видео: 1920x816, 7722 Kbps
Аудио1: AC3, 6 ch, 448 Kbps - РусскийРусский, Многоголосый (DVD)
Аудио2: AC3, 2 ch, 192 Kbps - РусскийРусский, Многоголосый (ОРТ)
Аудио3: AC3, 6 ch, 640 Kbps - АнглийскийАнглийский, Оригинал
Субтитры: Русские, английские

Как за пару секунд удалить ненужные аудиодорожки и субтитры (Внимание! После удаления вы не сможете поддержать раздачу)

Медиаинфо
General
Unique ID : 195080568661420623383301994702063855169 (0x92C3269FC3B2E2A59449F1123E8CE641)
Complete name : В поисках галактики.1999.HEVC.mkv
Format : Matroska
Format version : Version 4 / Version 2
File size : 6.43 GiB
Duration : 1h 42mn
Overall bit rate : 9 006 Kbps
Movie name : Galaxy Quest
Encoded date : UTC 2017-05-06 18:09:06
Writing application : mkvmerge v9.5.0 ('Quiet Fire') 64bit
Writing library : libebml v1.3.4 + libmatroska v1.4.5

Video
ID : 1
Format : HEVC
Format/Info : High Efficiency Video Coding
Format profile : Main 10@L4@Main
Codec ID : V_MPEGH/ISO/HEVC
Duration : 1h 42mn
Bit rate : 7 724 Kbps
Width : 1 920 pixels
Height : 816 pixels
Display aspect ratio : 2.35:1
Frame rate mode : Constant
Frame rate : 23.976 (24000/1001) fps
Color space : YUV
Chroma subsampling : 4:2:0
Bit depth : 10 bits
Bits/(Pixel*Frame) : 0.206
Stream size : 5.51 GiB (86%)
Title : HEVC
Writing library : x265 2.3+27-7e137e3ae083:[Windows][GCC 5.3.1][64 bit] 10bit
Encoding settings : cpuid=1173503 / frame-threads=2 / numa-pools=4 / wpp / no-pmode / no-pme / no-psnr / no-ssim / log-level=2 / input-csp=1 / input-res=1920x816 / interlace=0 / total-frames=0 / level-idc=0 / high-tier=1 / uhd-bd=0 / ref=4 / no-allow-non-conformance / no-repeat-headers / annexb / no-aud / no-hrd / info / hash=0 / no-temporal-layers / open-gop / min-keyint=23 / keyint=250 / bframes=4 / b-adapt=2 / b-pyramid / bframe-bias=0 / rc-lookahead=25 / lookahead-slices=0 / scenecut=40 / no-intra-refresh / ctu=64 / min-cu-size=8 / rect / no-amp / max-tu-size=32 / tu-inter-depth=1 / tu-intra-depth=1 / limit-tu=0 / rdoq-level=2 / dynamic-rd=0.00 / signhide / no-tskip / nr-intra=0 / nr-inter=0 / no-constrained-intra / strong-intra-smoothing / max-merge=3 / limit-refs=3 / no-limit-modes / me=3 / subme=3 / merange=57 / temporal-mvp / weightp / no-weightb / no-analyze-src-pics / deblock=-3:-3 / no-sao / no-sao-non-deblock / rd=4 / no-early-skip / rskip / no-fast-intra / no-tskip-fast / no-cu-lossless / no-b-intra / rdpenalty=0 / psy-rd=2.00 / psy-rdoq=1.00 / no-rd-refine / analysis-mode=0 / no-lossless / cbqpoffs=0 / crqpoffs=0 / rc=crf / crf=18.0 / qcomp=0.60 / qpstep=4 / stats-write=0 / stats-read=0 / ipratio=1.40 / pbratio=1.30 / aq-mode=1 / aq-strength=1.00 / cutree / zone-count=0 / no-strict-cbr / qg-size=32 / no-rc-grain / qpmax=69 / qpmin=0 / sar=0 / overscan=0 / videoformat=5 / range=0 / colorprim=2 / transfer=2 / colormatrix=2 / chromaloc=0 / display-window=0 / max-cll=0,0 / min-luma=0 / max-luma=1023 / log2-max-poc-lsb=8 / vui-timing-info / vui-hrd-info / slices=1 / opt-qp-pps / opt-ref-list-length-pps / no-multi-pass-opt-rps / scenecut-bias=0.05 / no-opt-cu-delta-qp / no-aq-motion / no-hdr / no-hdr-opt / refine-level=5
Default : Yes
Forced : No

Audio #1
ID : 2
Format : AC-3
Format/Info : Audio Coding 3
Mode extension : CM (complete main)
Format settings, Endianness : Big
Codec ID : A_AC3
Duration : 1h 42mn
Bit rate mode : Constant
Bit rate : 448 Kbps
Channel(s) : 6 channels
Channel positions : Front: L C R, Side: L R, LFE
Sampling rate : 48.0 KHz
Frame rate : 31.250 fps (1536 spf)
Compression mode : Lossy
Stream size : 327 MiB (5%)
Title : DVD
Language : Russian
Default : Yes
Forced : No

Audio #2
ID : 3
Format : AC-3
Format/Info : Audio Coding 3
Mode extension : CM (complete main)
Format settings, Endianness : Big
Codec ID : A_AC3
Duration : 1h 42mn
Bit rate mode : Constant
Bit rate : 192 Kbps
Channel(s) : 2 channels
Channel positions : Front: L R
Sampling rate : 48.0 KHz
Frame rate : 31.250 fps (1536 spf)
Compression mode : Lossy
Stream size : 140 MiB (2%)
Title : ORT
Language : Russian
Default : No
Forced : No

Audio #3
ID : 4
Format : AC-3
Format/Info : Audio Coding 3
Mode extension : CM (complete main)
Format settings, Endianness : Big
Codec ID : A_AC3
Duration : 1h 42mn
Bit rate mode : Constant
Bit rate : 640 Kbps
Channel(s) : 6 channels
Channel positions : Front: L C R, Side: L R, LFE
Sampling rate : 48.0 KHz
Frame rate : 31.250 fps (1536 spf)
Compression mode : Lossy
Stream size : 468 MiB (7%)
Title : Original
Language : English
Default : No
Forced : No

Text #1
ID : 5
Format : UTF-8
Codec ID : S_TEXT/UTF8
Codec ID/Info : UTF-8 Plain Text
Duration : 1h 36mn
Bit rate : 107 bps
Count of elements : 1338
Stream size : 76.1 KiB (0%)
Title : Full
Language : Russian
Default : No
Forced : No

Text #2
ID : 6
Format : UTF-8
Codec ID : S_TEXT/UTF8
Codec ID/Info : UTF-8 Plain Text
Duration : 1h 41mn
Bit rate : 64 bps
Count of elements : 1270
Stream size : 47.6 KiB (0%)
Title : Full
Language : English
Default : No
Forced : No

Menu
00:00:00.000 : en:00:00:00.000
00:06:14.249 : en:00:06:14.249
00:11:09.544 : en:00:11:09.544
00:15:19.418 : en:00:15:19.418
00:20:05.913 : en:00:20:05.913
00:25:26.525 : en:00:25:26.525
00:33:06.234 : en:00:33:06.234
00:38:25.136 : en:00:38:25.136
00:42:12.613 : en:00:42:12.613
00:46:37.086 : en:00:46:37.086
00:50:24.188 : en:00:50:24.188
00:55:22.361 : en:00:55:22.361
01:02:02.052 : en:01:02:02.052
01:07:23.289 : en:01:07:23.289
01:10:33.479 : en:01:10:33.479
01:16:05.519 : en:01:16:05.519
01:23:24.541 : en:01:23:24.541
01:28:24.382 : en:01:28:24.382
01:32:37.927 : en:01:32:37.927
01:37:30.261 : en:01:37:30.261
Загрузка...Cкриншот1 В поисках галактики / Galaxy Quest (1999) BDRip 1080p [HEVC] 10 bit от montykЗагрузка...Cкриншот2 В поисках галактики / Galaxy Quest (1999) BDRip 1080p [HEVC] 10 bit от montykЗагрузка...Cкриншот3 В поисках галактики / Galaxy Quest (1999) BDRip 1080p [HEVC] 10 bit от montykЗагрузка...Cкриншот4 В поисках галактики / Galaxy Quest (1999) BDRip 1080p [HEVC] 10 bit от montyk
Торрент🧲 Магнет

Рейтинги КП и IMDB, кнопки "Позвать в чате" и "Спасибо", а также мультитрекерная статистика доступны только зарегистрированным/авторизованным пользователям!

Файлы: 1
  • В поисках галактики.1999.HEVC.mkv   6.43 ГБ
Поблагодарили: 7
davidoff_k4, e7e1, ivan_1965, MIGRANT, misharev1970, SaN161NeK, unnamed
Admin
0171006.43 ГБ

Добавление нового комментария

Добавление комментариев доступно только зарегистрированным/авторизованным пользователям.