💬 Мини-чат

OldGamerвыводить
mafo2Admin, можно вывести, наглядно будет
StarLordAdmin, +
AdminНадпись HDR выводить на обложку?
OldGamerGiggalo, но лучше всего вообще не затрагивайте этот ключ, по умолчанию будет установлено оптимальное значение
OldGamerGiggalo, но если уж очень хочется то пишите --frame-threads 3
OldGamerGiggalo, а зачем его менять?) нужное значение устанавливается автоматически
GiggaloДобрый вечер всем! OldGamer Покажи пожалуйста почему когда пишу в командной строке frame-threads=3 он не меняется. Какой там стоит 13 он его и держит, а ругие установки спокойно меняет?
AdminStarLord, спасибо. Пока сойдет.
StarLordAdmin, ага, вижу
StarLordAdmin, а как должно брать?
AdminStarLord, ты шаришь?
AdminStarLord, у меня сейчас такая, но с точками беда. Доработать бы (https?://([-\w\.]+)+(:\d+)?(/([-\w/_:%]*(\.\w+)*(\?\S+)?)?)?)
AdminStarLord, скрины в bb некорректно берет
StarLordwww, ftp(s), http(s), #, :, &
StarLordAdmin, все мои кейсы покрыла
StarLordAdmin, вот эта хорошая -(?:(?:https?|ftps?):\/\/|\b(?:[a-z\d]+\.))(?:(?:[^\s()<>]+|\((?:[^\s()<>]+|(?:\([^\s()<>]+\)))?\))+(?:\((?:[^\s()<>]+|(?:\(?:[^\s()<>]+\)))?\)|[^\s`!()\[\]{};:'".,<>?«»“”‘’]))?
AdminStarLord, мне бы с обязательным указанием протокола
AdminСообщение удалено (удалил: Admin)
AdminСообщение удалено (удалил: Admin)
  • InSpector
  • Rizenfast
Отправка сообщений доступна только зарегистрированным/авторизованным пользователям.
Онлайн (за 10 мин.): 2

След Сокола / Spur des Falken (1968) BDRip 1080p [HEVC] 10 bit от Joker63

HEVC
10 bit
Обложка След Сокола / Spur des Falken (1968) BDRip 1080p [HEVC] 10 bit от Joker63 Год: 1968
Страна: Германия (ГДР)
Жанр: Драма, Вестерн
Продолжительность: 01:48:53

Режиссер: Готтфрид Кольдиц
В ролях: Гойко Митич, Ханьо Хассе, Барбара Брыльска, Хельмут Шрайбер, Фред Дельмаре, Хольгер Малих, Хорст Кубе, Дитмар Рихтер-Райник, Отар Коберидзе, Лаврентий Кочадзе, Альберт Георгадзе

Описание: Во второй половине 19 века в Черных горах (Блэк-хиллс) было найдено золото. Весть об этой находке привлекает в Черные горы искателей приключений, бандитов, золотоискателей и дельцов, хотя согласно договору эти земли оставлены за индейцами племени дакота. В числе дельцов прибыл и Бладжен ("Дубинка»), спекулирующий земельными участками — он пытается любыми средствами согнать индейцев с их земли. Истребляя стада буйволов и вырезая целые деревни, им удается ослабить племя дакота. Между тем вождь Зоркий Сокол со своими воинами пытается раздобыть оружие. Чтобы отомстить, воины дакота нападают на город золотоискателей, здесь происходит настоящее кровавое сражение между белыми и индейцами. Белых может спасти от поражения только приход армии…


Видео: 1920x820, 7012 Kbps
Аудио1: AC3, 2 ch, 192 Kbps - Русский(Дубляж + вставки Ю.Сербина)
Аудио2: AC3, 2 ch, 192 Kbps - GermanGerman
Субтитры: Нет

Как за пару секунд удалить ненужные аудиодорожки и субтитры (Внимание! После удаления вы не сможете поддержать раздачу)

Медиаинфо
Общее
Уникальный идентификатор : 236909342734951358957894990185489057178 (0xB23B14690B183DEA9B0756B8CF1D459A)
Полное имя : D:\Гойко Митич\След Сокола Spur des Falken 1968 ДБ BDRip 1080p [HEVC] 10 bit.mkv
Формат : Matroska
Версия формата : Version 4 / Version 2
Размер файла : 5,63 Гбайт
Продолжительность : 1 ч. 48 м.
Общий поток : 7399 Кбит/сек
Название фильма : Рип от Joker6346 для HEVC - CLUB
Дата кодирования : UTC 2018-08-02 06:26:08
Программа кодирования : mkvmerge v24.0.0 ('Beyond The Pale') 64-bit
Библиотека кодирования : libebml v1.3.6 + libmatroska v1.4.9
Обложка : Yes
Attachments : cover9.jpg

Видео
Идентификатор : 1
Формат : HEVC
Формат/Информация : High Efficiency Video Coding
Профиль формата : Main 10@L5.1@Main
Идентификатор кодека : V_MPEGH/ISO/HEVC
Продолжительность : 1 ч. 48 м.
Битрейт : 7012 Кбит/сек
Ширина : 1920 пикселей
Высота : 820 пикселей
Соотношение сторон : 2,35:1
Режим частоты кадров : Постоянный
Частота кадров : 50,000 кадров/сек
Цветовое пространство : YUV
Субдискретизация насыщенности : 4:2:0
Битовая глубина : 10 бит
Бит/(Пиксели*Кадры) : 0.089
Размер потока : 5,33 Гбайт (95%)
Библиотека кодирования : x265 2.8+19-bcdc610cf5f0:[Windows][GCC 7.3.0][64 bit] 10bit
Настройки программы : cpuid=1049583 / frame-threads=5 / numa-pools=4 / wpp / no-pmode / no-pme / no-psnr / no-ssim / log-level=3 / input-csp=1 / input-res=1920x820 / interlace=0 / total-frames=0 / level-idc=51 / high-tier=1 / uhd-bd=0 / ref=5 / allow-non-conformance / no-repeat-headers / annexb / no-aud / no-hrd / info / hash=0 / no-temporal-layers / open-gop / min-keyint=50 / keyint=500 / gop-lookahead=0 / bframes=4 / b-adapt=2 / b-pyramid / bframe-bias=0 / rc-lookahead=20 / lookahead-slices=5 / scenecut=40 / radl=0 / no-intra-refresh / ctu=64 / min-cu-size=8 / no-rect / no-amp / max-tu-size=32 / tu-inter-depth=1 / tu-intra-depth=1 / limit-tu=0 / rdoq-level=0 / dynamic-rd=0.00 / no-ssim-rd / signhide / no-tskip / nr-intra=0 / nr-inter=0 / no-constrained-intra / strong-intra-smoothing / max-merge=2 / limit-refs=3 / no-limit-modes / me=1 / subme=2 / merange=57 / temporal-mvp / weightp / no-weightb / no-analyze-src-pics / deblock=-2:-2 / sao / no-sao-non-deblock / rd=3 / no-early-skip / rskip / no-fast-intra / no-tskip-fast / no-cu-lossless / no-b-intra / no-splitrd-skip / rdpenalty=0 / psy-rd=2.00 / psy-rdoq=0.00 / no-rd-refine / no-lossless / cbqpoffs=0 / crqpoffs=0 / rc=abr / bitrate=7000 / qcomp=0.60 / qpstep=4 / stats-write=0 / stats-read=0 / ipratio=1.40 / pbratio=1.30 / aq-mode=1 / aq-strength=1.00 / cutree / zone-count=0 / no-strict-cbr / qg-size=32 / no-rc-grain / qpmax=69 / qpmin=0 / no-const-vbv / sar=1 / overscan=0 / videoformat=5 / range=0 / colorprim=1 / transfer=1 / colormatrix=1 / chromaloc=0 / display-window=0 / max-cll=0,0 / min-luma=0 / max-luma=1023 / log2-max-poc-lsb=8 / vui-timing-info / vui-hrd-info / slices=1 / no-opt-qp-pps / no-opt-ref-list-length-pps / no-multi-pass-opt-rps / scenecut-bias=0.05 / no-opt-cu-delta-qp / no-aq-motion / no-hdr / no-hdr-opt / no-dhdr10-opt / no-idr-recovery-sei / analysis-reuse-level=5 / scale-factor=0 / refine-intra=0 / refine-inter=0 / refine-mv=0 / no-limit-sao / ctu-info=0 / no-lowpass-dct / refine-mv-type=0 / copy-pic=1 / max-ausize-factor=1.0 / no-dynamic-refine / no-single-sei
Default : Да
Forced : Нет
Цветовой диапазон : Limited
Основные цвета : BT.709
Характеристики трансфера : BT.709
Коэффициенты матрицы : BT.709

Аудио #1
Идентификатор : 2
Формат : AC-3
Формат/Информация : Audio Coding 3
Идентификатор кодека : A_AC3
Продолжительность : 1 ч. 48 м.
Вид битрейта : Постоянный
Битрейт : 192 Кбит/сек
Каналы : 2 канала
Расположение каналов : Front: L R
Частота : 48,0 КГц
Частота кадров : 31,250 кадров/сек (1536 SPF)
Битовая глубина : 16 бит
Метод сжатия : С потерями
Размер потока : 150 Мбайт (3%)
Язык : Russian
ServiceKind/String : Complete Main
Default : Да
Forced : Нет

Аудио #2
Идентификатор : 3
Формат : AC-3
Формат/Информация : Audio Coding 3
Идентификатор кодека : A_AC3
Продолжительность : 1 ч. 48 м.
Вид битрейта : Постоянный
Битрейт : 192 Кбит/сек
Каналы : 2 канала
Расположение каналов : Front: L R
Частота : 48,0 КГц
Частота кадров : 31,250 кадров/сек (1536 SPF)
Битовая глубина : 16 бит
Метод сжатия : С потерями
Размер потока : 150 Мбайт (3%)
Язык : German
ServiceKind/String : Complete Main
Default : Нет
Forced : Нет
Загрузка...Cкриншот1 След Сокола / Spur des Falken (1968) BDRip 1080p [HEVC] 10 bit от Joker63Загрузка...Cкриншот2 След Сокола / Spur des Falken (1968) BDRip 1080p [HEVC] 10 bit от Joker63Загрузка...Cкриншот3 След Сокола / Spur des Falken (1968) BDRip 1080p [HEVC] 10 bit от Joker63Загрузка...Cкриншот4 След Сокола / Spur des Falken (1968) BDRip 1080p [HEVC] 10 bit от Joker63
Сэмпл Торрент🧲 Магнет

Рейтинги КП и IMDB, кнопки "Позвать в чате" и "Спасибо", а также мультитрекерная статистика сидов и пиров доступны только зарегистрированным/авторизованным пользователям!

Файлы: 1
  • След Сокола Spur des Falken 1968 ДБ BDRip 1080p [HEVC] 10 bit.mkv   5.63 ГБ
joker63
0140025.63 ГБ

Добавление нового комментария

Добавление комментариев доступно только зарегистрированным/авторизованным пользователям.