💬 Мини-чат

Убедительная просьба не обсуждать тут политику.
AdminЛёшикоБэст, вроде потихоньку идёт. Подождем, если не докачается, то встану.
AdminЛёшикоБэст, перекачайте торрент, а то в профиле не отображается ждете или уже нет
ЛёшикоБэстРаздайте, пожалуйста, Неудержимые / The Expendables (2010) [Theatrical Cut] BDRip 1080p [HEVC] 10 bit от Spartanec1308
OldGamerДа, есть.
ЛёшикоБэстДоброго вечера) Скажите пожалуйста, есть ли в планах сделать релиз дилогии "Зорро" с Антонио Бандерасом?
HANNIBALAdmin, 👍
AdminГоро, встал
ГороРаздайте, пожалуйста, Хищники / Predators (2010) BDRip 1080p [HEVC] 10 bit от HANNIBAL
AdminHANNIBAL, привет. Не помню за сколько брал, но продление в этот раз обошлось примерно в $14 со всякими комиссиями. А аренда VDS обходится примерно в $30-35 за год. Не исключено, что всё это подорожает. Пока что пожертвования с трудом покрывают расходы. Иногда если требуется и со своего кармана оплачиваю, не страшно. Прорвемся.
HANNIBALсколько сейчас стоит
HANNIBALAdmin, ПРИВЕТ
AdminНаконец-то получил банковскую карту. Продлил доменное имя (адрес сайта) на год.
  • ivan_1965
  • Rendre
Отправка сообщений доступна только зарегистрированным/авторизованным пользователям.
Онлайн (за 10 мин.): 2

Эта замечательная жизнь / It's a Wonderful Life (1946) [Цветная версия] BDRip 1080p [HEVC] 10 bit от Mr. Fox

HEVC
10 bit
Обложка Эта замечательная жизнь / It's a Wonderful Life (1946) [Цветная версия] BDRip 1080p [HEVC] 10 bit от Mr. Fox Год: 1946
Страна: США
Жанр: Фэнтези, Драма, Семейный
Продолжительность: 02:10:35

Режиссер: Фрэнк Капра
В ролях: Джеймс Стюарт, Донна Рид, Лайонел Бэрримор, Томас Митчелл, Генри Треверс, Бьюла Бонди, Фрэнк Фэйлен, Уорд Бонд, Глория Грэм, Х.Б. Уорнер

Описание: Джордж Бейли, владелец кредитной компании в выдуманном американском городке Бедфорд Фоллс, честный, отзывчивый, любящий муж и отец, подавлен свалившимися на него невзгодами и подумывает о самоубийстве. Очевидно, что человек, отказывающийся от самого большого дара Бога — жизни — нуждается в помощи ангела-хранителя. И Небеса отправляют ему на выручку Кларенса, единственного свободного на тот момент Ангела Второго Класса, приятного, доброго, но неопытного, еще даже не заслужившего крылья. Если он сделает свою работу хорошо и сможет отговорить Джорджа от смертного греха, он получит крылья. А времени у него почти не осталось… Кларенс находит единственно правильное решение — показать Джорджу мир, в котором тот не существует.


Видео: 1436x1080, 8341 Kbps
Аудио1: AC3, 6 ch, 448 Kbps - РусскийРусский, Многоголосый (DVD Magic)
Аудио2: AC3, 2 ch, 192 Kbps - РусскийРусский, Одноголосый (Карцев)
Аудио3: AC3, 2 ch, 224 Kbps - АнглийскийАнглийский, Оригинал
Субтитры: Русские, английские

Как за пару секунд удалить ненужные аудиодорожки и субтитры (Внимание! После удаления вы не сможете поддержать раздачу)

Медиаинфо
General
Unique ID : 316991885937284816562062498697734482837 (0xEE7A6AA16946BBDB4EABFC2820EB6B95)
Complete name : E:\Torrent\It's a Wonderful Life (1946) BDRip 1080p [HEVC].mkv
Format : Matroska
Format version : Version 4 / Version 2
File size : 8.40 GiB
Duration : 2 h 10 min
Overall bit rate : 9 208 kb/s
Movie name : It's a Wonderful Life (1946) Color
Encoded date : UTC 2018-12-29 14:10:28
Writing application : mkvmerge v28.2.0 ('The Awakening') 64-bit
Writing library : libebml v1.3.6 + libmatroska v1.4.9
Cover : Yes
Attachments : cover.jpg

Video
ID : 1
Format : HEVC
Format/Info : High Efficiency Video Coding
Format profile : Main 10@L4.1@High
Codec ID : V_MPEGH/ISO/HEVC
Duration : 2 h 10 min
Bit rate : 8 341 kb/s
Width : 1 436 pixels
Height : 1 080 pixels
Display aspect ratio : 4:3
Frame rate mode : Constant
Frame rate : 23.976 (24000/1001) FPS
Color space : YUV
Chroma subsampling : 4:2:0
Bit depth : 10 bits
Bits/(Pixel*Frame) : 0.224
Stream size : 7.61 GiB (91%)
Writing library : x265 2.9+9-f74003e88622:[Windows][GCC 7.3.0][64 bit] 10bit
Encoding settings : cpuid=1111039 / frame-threads=13 / numa-pools=12 / wpp / no-pmode / no-pme / no-psnr / no-ssim / log-level=3 / input-csp=1 / input-res=1436x1080 / interlace=0 / total-frames=0 / level-idc=41 / high-tier=1 / uhd-bd=0 / ref=5 / allow-non-conformance / no-repeat-headers / annexb / no-aud / no-hrd / info / hash=0 / no-temporal-layers / open-gop / min-keyint=24 / keyint=240 / gop-lookahead=0 / bframes=14 / b-adapt=2 / b-pyramid / bframe-bias=0 / rc-lookahead=60 / lookahead-slices=4 / scenecut=40 / radl=0 / no-intra-refresh / ctu=32 / min-cu-size=8 / rect / amp / max-tu-size=32 / tu-inter-depth=4 / tu-intra-depth=4 / limit-tu=1 / rdoq-level=2 / dynamic-rd=0.00 / no-ssim-rd / signhide / no-tskip / nr-intra=0 / nr-inter=0 / no-constrained-intra / no-strong-intra-smoothing / max-merge=4 / limit-refs=2 / limit-modes / me=3 / subme=7 / merange=57 / temporal-mvp / weightp / weightb / no-analyze-src-pics / deblock=-3:-3 / no-sao / no-sao-non-deblock / rd=6 / no-early-skip / no-rskip / no-fast-intra / no-tskip-fast / no-cu-lossless / no-b-intra / no-splitrd-skip / rdpenalty=0 / psy-rd=2.00 / psy-rdoq=1.00 / no-rd-refine / no-lossless / cbqpoffs=0 / crqpoffs=0 / rc=crf / crf=18.0 / qcomp=0.60 / qpstep=1 / stats-write=0 / stats-read=0 / vbv-maxrate=50000 / vbv-bufsize=50000 / vbv-init=0.9 / crf-max=30.0 / crf-min=0.0 / ipratio=1.40 / pbratio=1.30 / aq-mode=1 / aq-strength=1.00 / no-cutree / zone-count=0 / no-strict-cbr / qg-size=32 / no-rc-grain / qpmax=69 / qpmin=0 / no-const-vbv / sar=1 / overscan=0 / videoformat=5 / range=0 / colorprim=1 / transfer=1 / colormatrix=1 / chromaloc=0 / display-window=0 / max-cll=0,0 / min-luma=0 / max-luma=1023 / log2-max-poc-lsb=8 / vui-timing-info / vui-hrd-info / slices=1 / no-opt-qp-pps / no-opt-ref-list-length-pps / no-multi-pass-opt-rps / scenecut-bias=0.05 / no-opt-cu-delta-qp / no-aq-motion / no-hdr / no-hdr-opt / no-dhdr10-opt / no-idr-recovery-sei / analysis-reuse-level=5 / scale-factor=0 / refine-intra=0 / refine-inter=0 / refine-mv=0 / no-limit-sao / ctu-info=0 / no-lowpass-dct / refine-mv-type=0 / copy-pic=1 / max-ausize-factor=1.0 / no-dynamic-refine / no-single-sei
Language : Russian
Default : Yes
Forced : No
Color range : Limited
Color primaries : BT.709
Transfer characteristics : BT.709
Matrix coefficients : BT.709

Audio #1
ID : 2
Format : AC-3
Format/Info : Audio Coding 3
Codec ID : A_AC3
Duration : 2 h 10 min
Bit rate mode : Constant
Bit rate : 448 kb/s
Channel(s) : 6 channels
Channel positions : Front: L C R, Side: L R, LFE
Sampling rate : 48.0 kHz
Frame rate : 31.250 FPS (1536 SPF)
Bit depth : 16 bits
Compression mode : Lossy
Stream size : 418 MiB (5%)
Title : Dolby Digital Audio Russian 5.1 / 48 kHz / 448 kbps
Language : Russian
Service kind : Complete Main
Default : Yes
Forced : No

Audio #2
ID : 3
Format : AC-3
Format/Info : Audio Coding 3
Codec ID : A_AC3
Duration : 2 h 10 min
Bit rate mode : Constant
Bit rate : 192 kb/s
Channel(s) : 2 channels
Channel positions : Front: L R
Sampling rate : 48.0 kHz
Frame rate : 31.250 FPS (1536 SPF)
Bit depth : 16 bits
Compression mode : Lossy
Stream size : 179 MiB (2%)
Title : Dolby Digital Audio Russian 2.0 / 48 kHz / 192 kbps
Language : Russian
Service kind : Complete Main
Default : No
Forced : No

Audio #3
ID : 4
Format : AC-3
Format/Info : Audio Coding 3
Codec ID : A_AC3
Duration : 2 h 10 min
Bit rate mode : Constant
Bit rate : 224 kb/s
Channel(s) : 2 channels
Channel positions : Front: L R
Sampling rate : 48.0 kHz
Frame rate : 31.250 FPS (1536 SPF)
Bit depth : 16 bits
Compression mode : Lossy
Stream size : 209 MiB (2%)
Title : Dolby Digital Audio English 2.0 / 48 kHz / 224 kbps
Language : English
Service kind : Complete Main
Default : No
Forced : No

Text #1
ID : 5
Format : UTF-8
Codec ID : S_TEXT/UTF8
Codec ID/Info : UTF-8 Plain Text
Duration : 2 h 9 min
Bit rate : 121 b/s
Count of elements : 1539
Stream size : 115 KiB (0%)
Title : DVD Magic
Language : Russian
Default : No
Forced : No

Text #2
ID : 6
Format : UTF-8
Codec ID : S_TEXT/UTF8
Codec ID/Info : UTF-8 Plain Text
Duration : 2 h 8 min
Bit rate : 90 b/s
Count of elements : 2268
Stream size : 85.6 KiB (0%)
Title : SRT
Language : English
Default : No
Forced : No

Menu
00:00:00.000 : :Глава 01
00:05:00.000 : :Глава 02
00:10:00.000 : :Глава 03
00:15:00.000 : :Глава 04
00:20:00.000 : :Глава 05
00:25:00.000 : :Глава 06
00:30:00.000 : :Глава 07
00:35:00.000 : :Глава 08
00:40:00.000 : :Глава 09
00:45:00.000 : :Глава 10
00:50:00.000 : :Глава 11
00:55:00.000 : :Глава 12
01:00:00.000 : :Глава 13
01:05:00.000 : :Глава 14
01:10:00.000 : :Глава 15
01:15:00.000 : :Глава 16
01:20:00.000 : :Глава 17
01:25:00.000 : :Глава 18
01:30:00.000 : :Глава 19
01:35:00.000 : :Глава 20
01:40:00.000 : :Глава 21
01:45:00.000 : :Глава 22
01:50:00.000 : :Глава 23
01:55:00.000 : :Глава 24
02:00:00.000 : :Глава 25
02:05:00.000 : :Глава 26
02:10:00.000 : :Глава 27
Загрузка...Cкриншот1 Эта замечательная жизнь / It's a Wonderful Life (1946) [Цветная версия] BDRip 1080p [HEVC] 10 bit от Mr. FoxЗагрузка...Cкриншот2 Эта замечательная жизнь / It's a Wonderful Life (1946) [Цветная версия] BDRip 1080p [HEVC] 10 bit от Mr. FoxЗагрузка...Cкриншот3 Эта замечательная жизнь / It's a Wonderful Life (1946) [Цветная версия] BDRip 1080p [HEVC] 10 bit от Mr. FoxЗагрузка...Cкриншот4 Эта замечательная жизнь / It's a Wonderful Life (1946) [Цветная версия] BDRip 1080p [HEVC] 10 bit от Mr. Fox
Сэмпл Торрент🧲 Магнет

Раздача обновлена!
Добавлены субтитры.

Рейтинги КП и IMDB, кнопки "Позвать в чате" и "Спасибо", а также мультитрекерная статистика доступны только зарегистрированным/авторизованным пользователям!

Файлы: 1
  • It's a Wonderful Life (1946) BDRip 1080p [HEVC].mkv   8.4 ГБ
Поблагодарили: 7
375509, Algabas, brukvalub, hold, LastSurviv0r, nach, OldGamer
Admin
055018.4 ГБ

Добавление нового комментария

Добавление комментариев доступно только зарегистрированным/авторизованным пользователям.