💬 Мини-чат

Для тех, кому интересен процесс переделки сайта - https://rips.club/changelog.html (обновлен 22.02.2024)
OldGamerz1M4p9i0, и этот релиз скачался
Adminatomicheart, встал, но у Вас в профиле не видно. Вам бы перекачать.
OldGamerz1M4p9i0, Хан Соло скачался, но релиз, который был на руторе, там аудиодорожек меньше, чем тут, а видеоряд тот же. Попробуйте оттуда, я пока что сидирую.
OldGamerХан Соло откуда-то по чайной ложке в час скачивается, за сутки 50%, наблюдаем-с дальше
Adminatomicheart, завтра посмотрю, он у меня должен быть.
atomicheartРаздайте, пожалуйста, Тихое место: Дилогия / A Quiet Place: Dilogy (2018-2020) UHD-BDRip 1080p [HEVC] 10 bit [HDR] от Mr. Fox
z1M4p9i0Раздайте, пожалуйста, Хан Соло: Звёздные войны. Истории / Solo: A Star Wars Story (2018) [Локализованная версия] BDRip 1080p [HEVC] 10 bit от Cthulhu
z1M4p9i0Раздайте, пожалуйста, Терминатор: Тёмные судьбы / Terminator: Dark Fate (2019) [iTunes] UHD-BDRip 1440p [HEVC] 10 bit от HANNIBAL
OldGamerKeynol, честно говоря, пока что не планировалось, так как у нас есть отличный рип этого фильма
KeynolПриветствую! А можно сделать HEVC 10 bit на Трон Наследие Hybrid ? там файл на 31 гиг :-( на рутрекере. Хороший, но очень массивный..
  • OldGamer
  • 375509
  • Clockwork_Orange
  • InSpector
  • pmihail99
  • Лара
Отправка сообщений доступна только зарегистрированным/авторизованным пользователям.
Онлайн (за 10 мин.): 6

Сокровище нации / National Treasure (2004) BDRip 1080p [HEVC] 8 bit от Cthulhu

HEVC
8 bit
Обложка Сокровище нации / National Treasure (2004) BDRip 1080p [HEVC] 8 bit от Cthulhu Год: 2004
Страна: США
Студия: Jerry Bruckheimer Films, Junction Entertainment, Saturn Films, Walt Disney Pictures
Жанр: Боевик, Триллер, Детектив, Приключения
Продолжительность: 02:11:04

Режиссер: Джон Тёртлтауб
В ролях: Николас Кейдж, Дайан Крюгер, Джастин Барта, Шон Бин, Джон Войт, Харви Кейтель, Кристофер Пламмер, Дэвид Дайан Фишер, Стюарт Финлэй-МакЛеннан, Олег Тактаров

Описание: Современные охотники за сокровищами во главе с Беном Франклином Гейтсом узнают старинную легенду о сокровище, спрятанном еще отцами-основателями американского государства Джорджем Вашингтоном, Бенджамином Франклином и Томасом Джефферсоном. Узнать тайну клада можно с помощью Декларации Независимости США, в которой зашифрована разгадка. Но помимо разгадывания изощренной головоломки, нашим героям предстоит сразиться с любителями легкой наживы, жаждущим погреть руки на достоянии республики…


Видео: 1920x798, 5794 Kbps
Аудио1: AC3, 6 ch, 448 Kbps - РусскийРусский, Дублированный (Blu-ray EUR)
Аудио2: AC3, 6 ch, 448 Kbps - АнглийскийАнглийский, Оригинал
Субтитры: Русские (форсированные, полные), английские

Как за пару секунд удалить ненужные аудиодорожки и субтитры (Внимание! После удаления вы не сможете поддержать раздачу)

Медиаинфо
Общее
Уникальный идентификатор : 183948860859032137685555672774049588653 (0x8A63430E441DDC35B548018646C8E5AD)
Полное имя : T:\HDFILMS\National Treasure. Duology (2004-2007)\National Treasure (2004) BDRip 1080p [HEVC].mkv
Формат : Matroska
Версия формата : Version 4 / Version 2
Размер файла : 6,13 Гбайт
Продолжительность : 2 ч. 11 м.
Общий поток : 6693 Кбит/сек
Дата кодирования : UTC 2017-09-03 14:29:28
Программа кодирования : mkvmerge v13.0.0 ('The Juggler') 64bit
Библиотека кодирования : libebml v1.3.4 + libmatroska v1.4.5
Обложка : Yes
Attachments : cover1.jpg

Видео
Идентификатор : 1
Формат : HEVC
Формат/Информация : High Efficiency Video Coding
Профиль формата : Main@L4.1@High
Идентификатор кодека : V_MPEGH/ISO/HEVC
Продолжительность : 2 ч. 11 м.
Битрейт : 5794 Кбит/сек
Ширина : 1920 пикселей
Высота : 798 пикселей
Соотношение сторон : 2,40:1
Режим частоты кадров : Постоянный
Частота кадров : 23,976 (24000/1001) кадра/сек
Цветовое пространство : YUV
Субдискретизация насыщенности : 4:2:0
Битовая глубина : 8 бит
Бит/(Пиксели*Кадры) : 0.158
Размер потока : 5,30 Гбайт (87%)
Библиотека кодирования : x265 2.5+12-fcd9154fa4e2:[Windows][GCC 7.1.0][64 bit] 8bit
Настройки программы : cpuid=1050111 / frame-threads=5 / numa-pools=4 / wpp / no-pmode / no-pme / no-psnr / no-ssim / log-level=3 / input-csp=1 / input-res=1920x798 / interlace=0 / total-frames=0 / level-idc=41 / high-tier=1 / uhd-bd=0 / ref=4 / no-allow-non-conformance / no-repeat-headers / annexb / no-aud / no-hrd / info / hash=0 / no-temporal-layers / open-gop / min-keyint=23 / keyint=240 / bframes=12 / b-adapt=2 / b-pyramid / bframe-bias=0 / rc-lookahead=40 / lookahead-slices=5 / scenecut=40 / no-intra-refresh / ctu=64 / min-cu-size=8 / no-rect / no-amp / max-tu-size=32 / tu-inter-depth=2 / tu-intra-depth=2 / limit-tu=0 / rdoq-level=0 / dynamic-rd=0.00 / no-ssim-rd / signhide / no-tskip / nr-intra=0 / nr-inter=0 / no-constrained-intra / strong-intra-smoothing / max-merge=3 / limit-refs=3 / no-limit-modes / me=2 / subme=6 / merange=32 / temporal-mvp / weightp / weightb / no-analyze-src-pics / deblock=-3:-3 / no-sao / no-sao-non-deblock / rd=3 / no-early-skip / rskip / no-fast-intra / no-tskip-fast / no-cu-lossless / no-b-intra / no-splitrd-skip / rdpenalty=0 / psy-rd=2.00 / psy-rdoq=0.00 / no-rd-refine / analysis-reuse-mode=0 / no-lossless / cbqpoffs=0 / crqpoffs=0 / rc=crf / crf=18.5 / qcomp=0.60 / qpstep=4 / stats-write=0 / stats-read=0 / vbv-maxrate=50000 / vbv-bufsize=35714 / vbv-init=0.9 / crf-max=30.0 / crf-min=0.0 / ipratio=1.40 / pbratio=1.30 / aq-mode=2 / aq-strength=1.00 / cutree / zone-count=0 / no-strict-cbr / qg-size=32 / no-rc-grain / qpmax=69 / qpmin=0 / no-const-vbv / sar=1 / overscan=0 / videoformat=5 / range=0 / colorprim=1 / transfer=1 / colormatrix=1 / chromaloc=0 / display-window=0 / max-cll=0,0 / min-luma=0 / max-luma=255 / log2-max-poc-lsb=8 / vui-timing-info / vui-hrd-info / slices=1 / opt-qp-pps / opt-ref-list-length-pps / no-multi-pass-opt-rps / scenecut-bias=0.05 / no-opt-cu-delta-qp / no-aq-motion / no-hdr / no-hdr-opt / no-dhdr10-opt / analysis-reuse-level=5 / scale-factor=0 / refine-intra=0 / refine-inter=0 / refine-mv=0 / no-limit-sao / ctu-info=0
Язык : English
Default : Да
Forced : Нет
Цветовой диапазон : Limited
Основные цвета : BT.709
Характеристики трансфера : BT.709
Коэффициенты матрицы : BT.709

Аудио #1
Идентификатор : 2
Формат : AC-3
Формат/Информация : Audio Coding 3
Параметр Endianness формата : Big
Идентификатор кодека : A_AC3
Продолжительность : 2 ч. 11 м.
Вид битрейта : Постоянный
Битрейт : 448 Кбит/сек
Каналы : 6 каналов
Расположение каналов : Front: L C R, Side: L R, LFE
Частота : 48,0 КГц
Частота кадров : 31,250 кадров/сек (1536 SPF)
Битовая глубина : 16 бит
Метод сжатия : С потерями
Размер потока : 420 Мбайт (7%)
Язык : Russian
ServiceKind/String : Complete Main
Default : Да
Forced : Нет

Аудио #2
Идентификатор : 3
Формат : AC-3
Формат/Информация : Audio Coding 3
Параметр Endianness формата : Big
Идентификатор кодека : A_AC3
Продолжительность : 2 ч. 11 м.
Вид битрейта : Постоянный
Битрейт : 448 Кбит/сек
Каналы : 6 каналов
Расположение каналов : Front: L C R, Side: L R, LFE
Частота : 48,0 КГц
Частота кадров : 31,250 кадров/сек (1536 SPF)
Битовая глубина : 16 бит
Метод сжатия : С потерями
Размер потока : 420 Мбайт (7%)
Язык : English
ServiceKind/String : Complete Main
Default : Нет
Forced : Нет

Текст #1
Идентификатор : 4
Формат : UTF-8
Идентификатор кодека : S_TEXT/UTF8
Идентификатор кодека/Информация : UTF-8 Plain Text
Продолжительность : 2 ч. 0 м.
Битрейт : 27 бит/сек
ElementCount : 279
Размер потока : 24,0 Кбайт (0%)
Заголовок : rus forced
Язык : Russian
Default : Да
Forced : Да

Текст #2
Идентификатор : 5
Формат : UTF-8
Идентификатор кодека : S_TEXT/UTF8
Идентификатор кодека/Информация : UTF-8 Plain Text
Продолжительность : 2 ч. 0 м.
Битрейт : 88 бит/сек
ElementCount : 1440
Размер потока : 78,6 Кбайт (0%)
Заголовок : rus full
Язык : Russian
Default : Нет
Forced : Нет

Текст #3
Идентификатор : 6
Формат : UTF-8
Идентификатор кодека : S_TEXT/UTF8
Идентификатор кодека/Информация : UTF-8 Plain Text
Продолжительность : 2 ч. 0 м.
Битрейт : 62 бит/сек
ElementCount : 1457
Размер потока : 54,6 Кбайт (0%)
Язык : English
Default : Нет
Forced : Нет

Меню
00:00:00.000 : :The Legend of the Treasure
00:06:36.229 : :The Charlotte
00:22:20.339 : :Meeting with Dr. Chase
00:28:52.063 : :Making a Plan
00:31:18.126 : :The Setup
00:35:47.311 : :The Gala
00:45:55.794 : :Getting Found Out
00:54:28.139 : :We Need Those Letters
01:01:07.872 : :Examining the Document
01:07:02.852 : :Philadelphia
01:16:54.192 : :The Ocular Device
01:24:06.041 : :Ian Has the Map
01:28:21.254 : :The Uss Intrepid
01:34:20.404 : :Making a Deal with Ian
01:38:31.572 : :Beneath Parkington Lane
01:49:42.158 : :Ian Leaves Them Behind
01:53:25.965 : :Could It Really Be That Simple?
01:57:22.035 : :Somebody Has to Go to Prison
02:01:42.795 : :End Credits
Загрузка...Cкриншот1 Сокровище нации / National Treasure (2004) BDRip 1080p [HEVC] 8 bit от CthulhuЗагрузка...Cкриншот2 Сокровище нации / National Treasure (2004) BDRip 1080p [HEVC] 8 bit от CthulhuЗагрузка...Cкриншот3 Сокровище нации / National Treasure (2004) BDRip 1080p [HEVC] 8 bit от CthulhuЗагрузка...Cкриншот4 Сокровище нации / National Treasure (2004) BDRip 1080p [HEVC] 8 bit от Cthulhu
Торрент🧲 Магнет

Рейтинги КП и IMDB, кнопки "Позвать в чате" и "Спасибо", а также мультитрекерная статистика доступны только зарегистрированным/авторизованным пользователям!

Файлы: 1
  • National Treasure (2004) BDRip 1080p [HEVC].mkv   6.13 ГБ
Поблагодарили: 18
A1eksandr1, ACE_of_BOSS, andre_best, brukvalub, curly2, duke1966, G00dBuyer228, GIZMACHI, grudich, nach, NoMaD, Ronin13, SaN161NeK, Sharaman86, Shuzer, Strelych, Vladimir1981, серженто
Cthulhu
0410006.13 ГБ

Добавление нового комментария

Добавление комментариев доступно только зарегистрированным/авторизованным пользователям.