Чат

⚫︎
Список изменений сайта - https://rips.club/changelog.html (обновлен 24.05.2024)
  • atomicheart
  • Brooklyn
  • kacznelbogene
  • Winsent
Онлайн (за 10 мин.): 4
  • Antilord90: Может кто переделает "Секс по дружбе" телики не воспроизводят!
  • Гл. Админ: Niflung, раздаю
  • VIS: Раздайте, пожалуйста, Большое путешествие / The Wild (2006) BDRip 1080p [HEVC] 10 bit от Мичман
  • Niflung: Раздайте, пожалуйста, Тихое место: Дилогия / A Quiet Place: Dilogy (2018-2020) UHD-BDRip 1080p [HEVC] 10 bit [HDR] от Mr. Fox
  • Antilord90: Сообщение удалено (удалил: Antilord90)
  • Niflung: Гл. Админ, Ладно, буду качать 10 bit версию)
  • Гл. Админ: Niflung, у меня только 10-битная версия
  • HANNIBAL: Гл. Админ, все норм раздача идет
  • Niflung: Раздайте, пожалуйста, Берегись автомобиля (1966) [Цветная версия] BDRip 1080p [HEVC] 8 bit от ADVOKAT69
  • Гл. Админ: HANNIBAL, Я удалил раздачу, которую заливал я. А другую заливал ты, и она была как на руторе. Теперь не понятно на что ты перезалил (в чем разница по сравнению с предыдущей, т.е. руторовской), потому что сидов нет. По моему ты не исправил, а сломал ) ( отредактировано: )
  • Гл. Админ: OldGamer, вообще задумка была сделать цветовую дифференциацию как в фильме Кин-дза-дза!, но поскольку желтый ник лучше подходит для випов, то немного не получилось.
  • Гл. Админ: HANNIBAL, их 2. Что там нужно исправлять?
  • Гл. Админ: HANNIBAL, Я думаю в добавок к зеленой могут появиться и другие цвета. ( отредактировано: )
  • HANNIBAL: Гл. Админ, и исправь раздачу Голая правда
  • HANNIBAL: Гл. Админ, не пора убрать с посторов эту зеленую надпись )))
  • HANNIBAL: Сообщение удалено (удалил: HANNIBAL)
  • Гл. Админ: HANNIBAL, админов теперь 2 ( отредактировано: )
  • HANNIBAL: админ привет
  • Antilord90: Раздайте, пожалуйста, Мальчикам это нравится / The House Bunny (2008) BDRip 1080p [HEVC] 10 bit от -Star-Lord- (RG RIPS CLUB)
  • Гл. Админ: Продлил доменное имя (адрес сайта) на год. Что-то он подорожал (24 евро вместо прежних 12). Ещё раз спасибо всем, кто поддерживает финансово. ( отредактировано: )
Отправка сообщений доступна только зарегистрированным/авторизованным пользователям.

🎥︎Сокровище нации: Книга Тайн / National Treasure: Book of Secrets (2007) BDRip 1080p [HEVC] 8 bit от Cthulhu


Обложка Сокровище нации: Книга Тайн / National Treasure: Book of Secrets (2007) BDRip 1080p [HEVC] 8 bit от Cthulhu
HEVC
8 bit
⤓︎Торрент🧲︎Магнет$Пожертвования
Год: 2007
Страна: США
Студия: Walt Disney Pictures, Jerry Bruckheimer Films
Жанр: Боевик, Триллер, Детектив, Приключения
Длительность: 02:04:32

Режиссер: Джон Тёртлтауб
В ролях: Николас Кейдж, Дайан Крюгер, Джастин Барта, Джон Войт, Хелен Миррен, Эд Харрис, Харви Кейтель, Брюс Гринвуд, Тай Бурелл, Майкл Мейзе

Описание: Охотник за сокровищами Бен Гейтс, вооружившись поддержкой любимой женщины, верного друга Райли, а также своих родителей, отправляется на поиски затерянного золотого города. Только пройдя сквозь череду невероятных и увлекательных приключений, Бену удастся очистить имя своего предка от обвинений в убийстве Авраама Линкольна. Но не все так просто — параллельные поиски города ведет и некий Митч Уилкинсон, готовый на все ради достижения цели.


Видео: 1920x800, 6045 Kbps
Аудио1: AC3, 6 ch, 448 Kbps - РусскийРусский, Дублированный (Blu-ray EUR)
Аудио2: AC3, 6 ch, 448 Kbps - АнглийскийАнглийский, Оригинал
Субтитры: Русские (форсированные, полные), английские

Как за несколько секунд удалить ненужные аудиодорожки и субтитры (Внимание! После удаления вы не сможете поддержать раздачу)


МедиаинфоОбщее
Уникальный идентификатор : 218908968174952040344257119438266874305 (0xA4B0556CBA5411C9802357066E1EB9C1)
Полное имя : T:\HDFILMS\National Treasure. Duology (2004-2007)\National Treasure. Book of Secrets (2007) BDRip 1080p [HEVC].mkv
Формат : Matroska
Версия формата : Version 4 / Version 2
Размер файла : 6,04 Гбайт
Продолжительность : 2 ч. 4 м.
Общий поток : 6944 Кбит/сек
Дата кодирования : UTC 2017-09-03 14:51:55
Программа кодирования : mkvmerge v13.0.0 ('The Juggler') 64bit
Библиотека кодирования : libebml v1.3.4 + libmatroska v1.4.5
Обложка : Yes
Attachments : cover2.jpg

Видео
Идентификатор : 1
Формат : HEVC
Формат/Информация : High Efficiency Video Coding
Профиль формата : Main@L4.1@High
Идентификатор кодека : V_MPEGH/ISO/HEVC
Продолжительность : 2 ч. 4 м.
Битрейт : 6045 Кбит/сек
Ширина : 1920 пикселей
Высота : 800 пикселей
Соотношение сторон : 2,40:1
Режим частоты кадров : Постоянный
Частота кадров : 23,976 (24000/1001) кадра/сек
Цветовое пространство : YUV
Субдискретизация насыщенности : 4:2:0
Битовая глубина : 8 бит
Бит/(Пиксели*Кадры) : 0.164
Размер потока : 5,26 Гбайт (87%)
Библиотека кодирования : x265 2.5+12-fcd9154fa4e2:[Windows][GCC 7.1.0][64 bit] 8bit
Настройки программы : cpuid=1050111 / frame-threads=5 / numa-pools=4 / wpp / no-pmode / no-pme / no-psnr / no-ssim / log-level=3 / input-csp=1 / input-res=1920x800 / interlace=0 / total-frames=0 / level-idc=41 / high-tier=1 / uhd-bd=0 / ref=4 / no-allow-non-conformance / no-repeat-headers / annexb / no-aud / no-hrd / info / hash=0 / no-temporal-layers / open-gop / min-keyint=23 / keyint=240 / bframes=12 / b-adapt=2 / b-pyramid / bframe-bias=0 / rc-lookahead=40 / lookahead-slices=5 / scenecut=40 / no-intra-refresh / ctu=64 / min-cu-size=8 / no-rect / no-amp / max-tu-size=32 / tu-inter-depth=2 / tu-intra-depth=2 / limit-tu=0 / rdoq-level=0 / dynamic-rd=0.00 / no-ssim-rd / signhide / no-tskip / nr-intra=0 / nr-inter=0 / no-constrained-intra / strong-intra-smoothing / max-merge=3 / limit-refs=3 / no-limit-modes / me=2 / subme=6 / merange=32 / temporal-mvp / weightp / weightb / no-analyze-src-pics / deblock=-3:-3 / no-sao / no-sao-non-deblock / rd=3 / no-early-skip / rskip / no-fast-intra / no-tskip-fast / no-cu-lossless / no-b-intra / no-splitrd-skip / rdpenalty=0 / psy-rd=2.00 / psy-rdoq=0.00 / no-rd-refine / analysis-reuse-mode=0 / no-lossless / cbqpoffs=0 / crqpoffs=0 / rc=crf / crf=19.0 / qcomp=0.60 / qpstep=4 / stats-write=0 / stats-read=0 / vbv-maxrate=50000 / vbv-bufsize=35714 / vbv-init=0.9 / crf-max=30.0 / crf-min=0.0 / ipratio=1.40 / pbratio=1.30 / aq-mode=1 / aq-strength=1.00 / cutree / zone-count=0 / no-strict-cbr / qg-size=32 / no-rc-grain / qpmax=69 / qpmin=0 / no-const-vbv / sar=1 / overscan=0 / videoformat=5 / range=0 / colorprim=2 / transfer=2 / colormatrix=2 / chromaloc=0 / display-window=0 / max-cll=0,0 / min-luma=0 / max-luma=255 / log2-max-poc-lsb=8 / vui-timing-info / vui-hrd-info / slices=1 / opt-qp-pps / opt-ref-list-length-pps / no-multi-pass-opt-rps / scenecut-bias=0.05 / no-opt-cu-delta-qp / no-aq-motion / no-hdr / no-hdr-opt / no-dhdr10-opt / analysis-reuse-level=5 / scale-factor=0 / refine-intra=0 / refine-inter=0 / refine-mv=0 / no-limit-sao / ctu-info=0
Язык : English
Default : Да
Forced : Нет

Аудио #1
Идентификатор : 2
Формат : AC-3
Формат/Информация : Audio Coding 3
Параметр Endianness формата : Big
Идентификатор кодека : A_AC3
Продолжительность : 2 ч. 4 м.
Вид битрейта : Постоянный
Битрейт : 448 Кбит/сек
Каналы : 6 каналов
Расположение каналов : Front: L C R, Side: L R, LFE
Частота : 48,0 КГц
Частота кадров : 31,250 кадров/сек (1536 SPF)
Битовая глубина : 16 бит
Метод сжатия : С потерями
Размер потока : 399 Мбайт (6%)
Язык : Russian
ServiceKind/String : Complete Main
Default : Да
Forced : Нет

Аудио #2
Идентификатор : 3
Формат : AC-3
Формат/Информация : Audio Coding 3
Параметр Endianness формата : Big
Идентификатор кодека : A_AC3
Продолжительность : 2 ч. 4 м.
Вид битрейта : Постоянный
Битрейт : 448 Кбит/сек
Каналы : 6 каналов
Расположение каналов : Front: L C R, Side: L R, LFE
Частота : 48,0 КГц
Частота кадров : 31,250 кадров/сек (1536 SPF)
Битовая глубина : 16 бит
Метод сжатия : С потерями
Размер потока : 399 Мбайт (6%)
Язык : English
ServiceKind/String : Complete Main
Default : Нет
Forced : Нет

Текст #1
Идентификатор : 4
Формат : UTF-8
Идентификатор кодека : S_TEXT/UTF8
Идентификатор кодека/Информация : UTF-8 Plain Text
Продолжительность : 1 ч. 57 м.
Битрейт : 1 бит/сек
ElementCount : 39
Размер потока : 1,48 Кбайт (0%)
Заголовок : rus forced
Язык : Russian
Default : Да
Forced : Да

Текст #2
Идентификатор : 5
Формат : UTF-8
Идентификатор кодека : S_TEXT/UTF8
Идентификатор кодека/Информация : UTF-8 Plain Text
Продолжительность : 1 ч. 57 м.
Битрейт : 105 бит/сек
ElementCount : 1528
Размер потока : 91,1 Кбайт (0%)
Заголовок : rus full
Язык : Russian
Default : Нет
Forced : Нет

Текст #3
Идентификатор : 6
Формат : UTF-8
Идентификатор кодека : S_TEXT/UTF8
Идентификатор кодека/Информация : UTF-8 Plain Text
Продолжительность : 1 ч. 55 м.
Битрейт : 66 бит/сек
ElementCount : 1500
Размер потока : 56,7 Кбайт (0%)
Язык : English
Default : Нет
Forced : Нет

Меню
00:00:00.000 : :The War Is Over
00:04:59.340 : :The Missing Page
00:08:27.215 : :Breaking In
00:16:55.723 : :The Debt That All Men Pay
00:22:01.945 : :The Lady's Clue
00:26:03.395 : :Making A Scene At The Palace
00:36:47.038 : :The Streets Of London
00:43:02.913 : :Meeting Dr. Appleton
00:50:14.011 : :A Date At The White House
00:55:27.907 : :Riley's Theory
01:00:01.389 : :Happy Birthday, Mr. President
01:11:22.987 : :The Book Of Secrets
01:20:14.017 : :Another Translation
01:24:42.744 : :An Island Of Stone
01:30:41.269 : :Only One Way Out
01:40:07.334 : :The City Of Gold
01:47:17.889 : :Escaping Cibola
01:57:20.533 : :End Credits
Загрузка...Cкриншот1 Сокровище нации: Книга Тайн / National Treasure: Book of Secrets (2007) BDRip 1080p [HEVC] 8 bit от CthulhuЗагрузка...Cкриншот2 Сокровище нации: Книга Тайн / National Treasure: Book of Secrets (2007) BDRip 1080p [HEVC] 8 bit от CthulhuЗагрузка...Cкриншот3 Сокровище нации: Книга Тайн / National Treasure: Book of Secrets (2007) BDRip 1080p [HEVC] 8 bit от CthulhuЗагрузка...Cкриншот4 Сокровище нации: Книга Тайн / National Treasure: Book of Secrets (2007) BDRip 1080p [HEVC] 8 bit от Cthulhu
Поблагодарили: 17A1eksandr1, ACE_of_BOSS, axe66, curly2, duke1966, G00dBuyer228, grudich, nach, NoMaD, ramzes, Ronin13, SaN161NeK, Sharaman86, Shuzer, Strelych, Vladimir1981, серженто
Файлы: 1
  • National Treasure. Book of Secrets (2007) BDRip 1080p [HEVC].mkv

Рейтинги КП и IMDB, кнопки "Раздайте, пожалуйста" и "Спасибо", а также мультитрекерная статистика доступны только зарегистрированным/авторизованным пользователям!

Cthulhu
1034606.04 ГБ

💬︎ Комментарии

Добавление комментариев доступно только зарегистрированным/авторизованным пользователям.