💬 Мини-чат

Убедительная просьба не обсуждать тут политику.
AdminXuMuK, привет. По тихоньку. Начинает появляться немного свободного времени. В этом месяце вернусь к переделке сайта, которым несколько месяцев не занимался. Надо будет до весны закончить и обновиться.
SpartanecXuMuK, Привет Паш!
XuMuKSpartanec, Лёха, здарова, братишка
OldGamerXuMuK, https://forum.blu-ray.com/showthread.php?t=348907
XuMuKOldGamer, блин, исходник в bdvm. ещё и переупаковывать
XuMuKOldGamer, мне выдаёт только 2013 год релиза диска
OldGamerрано или поздно попадётся, там и посмотрим
OldGamerXuMuK, с форума blu-ray.com переходил по ссылкам на французские обзоры, там коллекционное издание выпустили
XuMuKOldGamer, хотя не факт, походу самопал
XuMuKOldGamer, на caps-a-holic нет такого трансфера. Но видимо есть на блютопии
OldGamerпрошлогодний французский трансфер хвалят по картинке, но в сети не встретился
OldGamerXuMuK, https://rutracker.org/forum/viewtopic.php?t=4986124
XuMuKOldGamer, ссылку хоть кинь
OldGamerXuMuK, я не сохранял исходник
XuMuKOldGamer, сэмпл-то дашь?
  • Kiran
Отправка сообщений доступна только зарегистрированным/авторизованным пользователям.
Онлайн (за 10 мин.): 1

Марсианин / The Martian (2015) [Theatrical Version] BDRip 1080p [HEVC] 10 bit от M@kSIMus

HEVC
10 bit
Обложка Марсианин / The Martian (2015) [Theatrical Version] BDRip 1080p [HEVC] 10 bit от M@kSIMus Год: 2015
Страна: Великобритания, США
Студия: 20th Century Fox Film Corporation, Genre Films
Жанр: Фантастика, Приключения
Продолжительность: 02:21:37

Режиссер: Ридли Скотт
В ролях: Мэтт Дэймон, Джессика Честейн, Чиветель Эджиофор, Кристен Уиг, Джефф Дэниелс, Майкл Пенья, Шон Бин, Кейт Мара, Себастиан Стэн, Аксель Хенни

Описание: Марсианская миссия «Арес-3» в процессе работы была вынуждена экстренно покинуть планету из-за надвигающейся песчаной бури. Инженер и биолог Марк Уотни получил повреждение скафандра во время песчаной бури. Сотрудники миссии, посчитав его погибшим, эвакуировались с планеты, оставив Марка одного. Очнувшись, Уотни обнаруживает, что связь с Землёй отсутствует, но при этом полностью функционирует жилой модуль. Главный герой начинает искать способ продержаться на имеющихся запасах еды, витаминов, воды и воздуха ещё 4 года до прилёта следующей миссии «Арес-4».


Видео: 1920x800, 5166 Kbps
Аудио: AC3, 6 ch, 448 Kbps - РусскийРусский, Дублированный (Лицензия)
Субтитры: Русские (форсированные)

Медиаинфо
General
Unique ID : 183611309417836582519918136709361315663 (0x8A22407C1945904645759ACE68362F4F)
Complete name : D:\Фильмы\16+\Марсианин. The Martian (2015) BDRip 1080p [HEVC] 10 bit M@kSIMus.mkv
Format : Matroska
Format version : Version 4 / Version 2
File size : 5.56 GiB
Duration : 2 h 21 min
Overall bit rate : 5 616 kb/s
Encoded date : UTC 2018-06-19 18:03:37
Writing application : mkvmerge v19.0.0 ('Brave Captain') 64-bit
Writing library : libebml v1.3.5 + libmatroska v1.4.8
Cover : Yes
Attachments : cover.jpg

Video
ID : 1
Format : HEVC
Format/Info : High Efficiency Video Coding
Format profile : Main 10@L5.1@High
Codec ID : V_MPEGH/ISO/HEVC
Duration : 2 h 21 min
Bit rate : 5 166 kb/s
Width : 1 920 pixels
Height : 800 pixels
Display aspect ratio : 2.40:1
Frame rate mode : Constant
Frame rate : 23.976 (24000/1001) FPS
Color space : YUV
Chroma subsampling : 4:2:0
Bit depth : 10 bits
Bits/(Pixel*Frame) : 0.140
Stream size : 5.11 GiB (92%)
Writing library : x265 2.7+336-07defe235cde:[Windows][clang 7.0.0][64 bit] 10bit
Encoding settings : cpuid=1049583 / frame-threads=5 / numa-pools=4 / wpp / no-pmode / no-pme / no-psnr / no-ssim / log-level=3 / input-csp=1 / input-res=1920x800 / interlace=0 / total-frames=0 / level-idc=51 / high-tier=1 / uhd-bd=0 / ref=2 / allow-non-conformance / no-repeat-headers / annexb / no-aud / no-hrd / info / hash=0 / no-temporal-layers / open-gop / min-keyint=24 / keyint=240 / gop-lookahead=0 / bframes=3 / b-adapt=2 / b-pyramid / bframe-bias=0 / rc-lookahead=20 / lookahead-slices=5 / scenecut=40 / radl=0 / no-intra-refresh / ctu=64 / min-cu-size=8 / no-rect / no-amp / max-tu-size=32 / tu-inter-depth=1 / tu-intra-depth=1 / limit-tu=0 / rdoq-level=0 / dynamic-rd=0.00 / no-ssim-rd / signhide / no-tskip / nr-intra=0 / nr-inter=0 / no-constrained-intra / strong-intra-smoothing / max-merge=2 / limit-refs=3 / no-limit-modes / me=1 / subme=7 / merange=57 / temporal-mvp / weightp / no-weightb / no-analyze-src-pics / deblock=-4:-4 / sao / no-sao-non-deblock / rd=3 / no-early-skip / rskip / no-fast-intra / no-tskip-fast / no-cu-lossless / no-b-intra / no-splitrd-skip / rdpenalty=0 / psy-rd=2.00 / psy-rdoq=0.00 / no-rd-refine / no-lossless / cbqpoffs=0 / crqpoffs=0 / rc=crf / crf=17.2 / qcomp=0.60 / qpstep=4 / stats-write=0 / stats-read=0 / vbv-maxrate=160000 / vbv-bufsize=160000 / vbv-init=0.9 / crf-max=0.0 / crf-min=0.0 / ipratio=1.40 / pbratio=1.30 / aq-mode=1 / aq-strength=1.00 / cutree / zone-count=0 / no-strict-cbr / qg-size=32 / no-rc-grain / qpmax=69 / qpmin=0 / no-const-vbv / sar=1 / overscan=0 / videoformat=5 / range=0 / colorprim=2 / transfer=2 / colormatrix=2 / chromaloc=0 / display-window=0 / max-cll=0,0 / min-luma=0 / max-luma=1023 / log2-max-poc-lsb=8 / vui-timing-info / vui-hrd-info / slices=1 / no-opt-qp-pps / no-opt-ref-list-length-pps / no-multi-pass-opt-rps / scenecut-bias=0.05 / no-opt-cu-delta-qp / no-aq-motion / no-hdr / no-hdr-opt / no-dhdr10-opt / no-idr-recovery-sei / analysis-reuse-level=5 / scale-factor=0 / refine-intra=0 / refine-inter=0 / refine-mv=0 / no-limit-sao / ctu-info=0 / no-lowpass-dct / refine-mv-type=0 / copy-pic=1 / max-ausize-factor=1.0 / no-dynamic-refine / no-single-sei
Language : English
Default : Yes
Forced : No

Audio
ID : 2
Format : AC-3
Format/Info : Audio Coding 3
Codec ID : A_AC3
Duration : 2 h 21 min
Bit rate mode : Constant
Bit rate : 448 kb/s
Channel(s) : 6 channels
Channel positions : Front: L C R, Side: L R, LFE
Sampling rate : 48.0 kHz
Frame rate : 31.250 FPS (1536 SPF)
Bit depth : 16 bits
Compression mode : Lossy
Stream size : 454 MiB (8%)
Title : Дубляж
Language : Russian
Service kind : Complete Main
Default : Yes
Forced : No

Text
ID : 3
Format : UTF-8
Codec ID : S_TEXT/UTF8
Codec ID/Info : UTF-8 Plain Text
Duration : 2 h 20 min
Bit rate : 3 b/s
Count of elements : 67
Stream size : 3.16 KiB (0%)
Title : Forced
Language : Russian
Default : Yes
Forced : No
Загрузка...Cкриншот1 Марсианин / The Martian (2015) [Theatrical Version] BDRip 1080p [HEVC] 10 bit от M@kSIMusЗагрузка...Cкриншот2 Марсианин / The Martian (2015) [Theatrical Version] BDRip 1080p [HEVC] 10 bit от M@kSIMusЗагрузка...Cкриншот3 Марсианин / The Martian (2015) [Theatrical Version] BDRip 1080p [HEVC] 10 bit от M@kSIMusЗагрузка...Cкриншот4 Марсианин / The Martian (2015) [Theatrical Version] BDRip 1080p [HEVC] 10 bit от M@kSIMus
Торрент🧲 Магнет

Рейтинги КП и IMDB, кнопки "Позвать в чате" и "Спасибо", а также мультитрекерная статистика доступны только зарегистрированным/авторизованным пользователям!

Файлы: 1
  • Марсианин (2015) BDRip 1080p [HEVC] 10 bit.mkv   5.56 ГБ
Поблагодарили: 10
Brooklyn, brukvalub, davidoff_k4, Dmitrrry, dresden, justmkr, Leon20052, makss333, NoMaD, SaN161NeK
Admin
0101005.56 ГБ

Добавление нового комментария

Добавление комментариев доступно только зарегистрированным/авторизованным пользователям.