💬 Мини-чат

Убедительная просьба не обсуждать тут политику.
AdminЛёшикоБэст, вроде потихоньку идёт. Подождем, если не докачается, то встану.
AdminЛёшикоБэст, перекачайте торрент, а то в профиле не отображается ждете или уже нет
ЛёшикоБэстРаздайте, пожалуйста, Неудержимые / The Expendables (2010) [Theatrical Cut] BDRip 1080p [HEVC] 10 bit от Spartanec1308
OldGamerДа, есть.
ЛёшикоБэстДоброго вечера) Скажите пожалуйста, есть ли в планах сделать релиз дилогии "Зорро" с Антонио Бандерасом?
HANNIBALAdmin, 👍
AdminГоро, встал
ГороРаздайте, пожалуйста, Хищники / Predators (2010) BDRip 1080p [HEVC] 10 bit от HANNIBAL
AdminHANNIBAL, привет. Не помню за сколько брал, но продление в этот раз обошлось примерно в $14 со всякими комиссиями. А аренда VDS обходится примерно в $30-35 за год. Не исключено, что всё это подорожает. Пока что пожертвования с трудом покрывают расходы. Иногда если требуется и со своего кармана оплачиваю, не страшно. Прорвемся.
HANNIBALсколько сейчас стоит
HANNIBALAdmin, ПРИВЕТ
AdminНаконец-то получил банковскую карту. Продлил доменное имя (адрес сайта) на год.
  • ivan_1965
Отправка сообщений доступна только зарегистрированным/авторизованным пользователям.
Онлайн (за 10 мин.): 1

Веном / Venom (2018) [iTunes] UHD-BDRip 2160p [HEVC] 10 bit [HDR] от HANNIBAL

HEVC
HDR
10 bit
Обложка Веном / Venom (2018) [iTunes] UHD-BDRip 2160p [HEVC] 10 bit [HDR] от HANNIBAL Год: 2018
Страна: США, Китай
Студия: Columbia Pictures Corporation, Marvel Entertainment, Pascal Pictures
Жанр: Боевик, Фантастика, Триллер, Ужасы
Продолжительность: 01:52:08

Режиссер: Рубен Фляйшер
В ролях: Том Харди, Мишель Уильямс, Риз Ахмед, Скотт Хэйз, Рейд Скотт, Дженни Слейт, Мелора Уолтерс, Вуди Харрельсон, Пегги Лу, Малкольм С. Мюррэй

Описание: Что если в один прекрасный день в тебя вселяется существо-симбиот, которое наделяет тебя сверхчеловеческими способностями? Вот только Веном — симбиот совсем недобрый, и договориться с ним невозможно. Хотя нужно ли договариваться?.. Ведь в какой-то момент ты понимаешь, что быть плохим вовсе не так уж и плохо. Так даже веселее. В мире и так слишком много супергероев! Мы — Веном!


Видео: 3840x1600, 11.0 Mbps
Аудио: AC3, 6 ch, 384 Kbps - РусскийРусский, Дублированный (iTunes)
Субтитры: Русские (форсированные)

Медиаинфо
General
Unique ID : 84554478945997158875338834943659043429 (0x3F9C99ACD44C030018DE6B527CD56A65)
Complete name : F:\[HEVC]\UHD [HEVC]\Venom (2018) BDRip 2160p [HEVC] 10bit.mkv
Format : Matroska
Format version : Version 4
File size : 8.93 GiB
Duration : 1 h 52 min
Overall bit rate : 11.4 Mb/s
Movie name : Веном
Encoded date : UTC 2018-12-28 14:53:11
Writing application : mkvmerge v25.0.0 ('Prog Noir') 64-bit
Writing library : libebml v1.3.6 + libmatroska v1.4.9 / Lavf57.71.100
Attachments : poster.jpg
ACTORS : Том Харди, Мишель Уильямс,
COUNTRY : США
DATE : 2018
DIRECTOR : Рубен Фляйшер
ENCODING_INFO : MPEGTS > MKV 1080p 10-bit / HEVC > X265 CRF 18.5 Placebo / AC3 > AC3 CBR 384kbps
GENRE : боевик, фантастика, триллер
HD_VIDEO : 1
Language : und
MEDIA_TYPE : 9
ORIGINAL_TITLE : Venom

Video
ID : 1
Format : HEVC
Format/Info : High Efficiency Video Coding
Format profile : Main 10@L5.1@High
Codec ID : V_MPEGH/ISO/HEVC
Duration : 1 h 52 min
Bit rate : 11.0 Mb/s
Width : 3 840 pixels
Height : 1 600 pixels
Display aspect ratio : 2.40:1
Frame rate mode : Constant
Frame rate : 23.976 (24000/1001) FPS
Color space : YUV
Chroma subsampling : 4:2:0
Bit depth : 10 bits
Bits/(Pixel*Frame) : 0.075
Stream size : 8.62 GiB (97%)
Writing library : x265 2.9+9-f74003e88622:[Windows][GCC 7.3.0][64 bit] 10bit
Encoding settings : cpuid=1111039 / frame-threads=13 / numa-pools=12 / wpp / no-pmode / no-pme / no-psnr / no-ssim / log-level=3 / input-csp=1 / input-res=3840x1600 / interlace=0 / total-frames=0 / level-idc=51 / high-tier=1 / uhd-bd=0 / ref=5 / allow-non-conformance / no-repeat-headers / annexb / no-aud / no-hrd / info / hash=0 / no-temporal-layers / open-gop / min-keyint=24 / keyint=240 / gop-lookahead=0 / bframes=8 / b-adapt=2 / b-pyramid / bframe-bias=0 / rc-lookahead=40 / lookahead-slices=8 / scenecut=40 / radl=0 / no-intra-refresh / ctu=64 / min-cu-size=8 / no-rect / no-amp / max-tu-size=32 / tu-inter-depth=1 / tu-intra-depth=1 / limit-tu=0 / rdoq-level=0 / dynamic-rd=0.00 / no-ssim-rd / signhide / no-tskip / nr-intra=0 / nr-inter=0 / no-constrained-intra / strong-intra-smoothing / max-merge=2 / limit-refs=3 / no-limit-modes / me=3 / subme=7 / merange=57 / temporal-mvp / weightp / weightb / no-analyze-src-pics / deblock=-3:-3 / no-sao / no-sao-non-deblock / rd=3 / no-early-skip / rskip / no-fast-intra / no-tskip-fast / no-cu-lossless / no-b-intra / no-splitrd-skip / rdpenalty=0 / psy-rd=2.00 / psy-rdoq=0.00 / no-rd-refine / no-lossless / cbqpoffs=0 / crqpoffs=0 / rc=crf / crf=18.5 / qcomp=0.65 / qpstep=4 / stats-write=0 / stats-read=0 / vbv-maxrate=160000 / vbv-bufsize=160000 / vbv-init=0.9 / crf-max=0.0 / crf-min=0.0 / ipratio=1.40 / pbratio=1.30 / aq-mode=1 / aq-strength=1.00 / cutree / zone-count=0 / no-strict-cbr / qg-size=32 / no-rc-grain / qpmax=69 / qpmin=0 / no-const-vbv / sar=1 / overscan=0 / videoformat=5 / range=0 / colorprim=9 / transfer=16 / colormatrix=9 / chromaloc=0 / display-window=0 / max-cll=0,0 / min-luma=0 / max-luma=1023 / log2-max-poc-lsb=8 / vui-timing-info / vui-hrd-info / slices=1 / no-opt-qp-pps / no-opt-ref-list-length-pps / no-multi-pass-opt-rps / scenecut-bias=0.05 / no-opt-cu-delta-qp / no-aq-motion / no-hdr / no-hdr-opt / no-dhdr10-opt / no-idr-recovery-sei / analysis-reuse-level=5 / scale-factor=0 / refine-intra=0 / refine-inter=0 / refine-mv=0 / no-limit-sao / ctu-info=0 / no-lowpass-dct / refine-mv-type=0 / copy-pic=1 / max-ausize-factor=1.0 / no-dynamic-refine / no-single-sei
Default : Yes
Forced : No
Color range : Limited
Color primaries : BT.2020
Transfer characteristics : PQ
Matrix coefficients : BT.2020 non-constant

Audio
ID : 2
Format : AC-3
Format/Info : Audio Coding 3
Commercial name : Dolby Digital
Codec ID : A_AC3
Duration : 1 h 52 min
Bit rate mode : Constant
Bit rate : 384 kb/s
Channel(s) : 6 channels
Channel layout : L R C LFE Ls Rs
Sampling rate : 48.0 kHz
Frame rate : 31.250 FPS (1536 SPF)
Bit depth : 16 bits
Compression mode : Lossy
Stream size : 308 MiB (3%)
Service kind : Complete Main
Default : Yes
Forced : No

Text
ID : 3
Format : UTF-8
Codec ID : S_TEXT/UTF8
Codec ID/Info : UTF-8 Plain Text
Duration : 1 h 49 min
Bit rate : 0 b/s
Count of elements : 7
Stream size : 209 Bytes (0%)
Title : Forced
Language : Russian
Default : Yes
Forced : No

Menu
00:00:00.000 : :Глава 1
00:08:05.735 : :Глава 2
00:15:32.222 : :Глава 3
00:23:25.028 : :Глава 4
00:30:26.407 : :Глава 5
00:39:22.318 : :Глава 6
00:45:45.951 : :Глава 7
00:54:03.281 : :Глава 8
01:02:08.391 : :Глава 9
01:10:26.555 : :Глава 10
01:16:49.521 : :Глава 11
01:24:29.105 : :Глава 12
01:31:30.610 : :Глава 13
01:42:34.857 : :Глава 14
Загрузка...Cкриншот1 Веном / Venom (2018) [iTunes] UHD-BDRip 2160p [HEVC] 10 bit [HDR] от HANNIBALЗагрузка...Cкриншот2 Веном / Venom (2018) [iTunes] UHD-BDRip 2160p [HEVC] 10 bit [HDR] от HANNIBALЗагрузка...Cкриншот3 Веном / Venom (2018) [iTunes] UHD-BDRip 2160p [HEVC] 10 bit [HDR] от HANNIBALЗагрузка...Cкриншот4 Веном / Venom (2018) [iTunes] UHD-BDRip 2160p [HEVC] 10 bit [HDR] от HANNIBAL
Сэмпл Торрент🧲 Магнет

Рейтинги КП и IMDB, кнопки "Позвать в чате" и "Спасибо", а также мультитрекерная статистика доступны только зарегистрированным/авторизованным пользователям!

Файлы: 1
  • Venom (2018) BDRip 2160p [HEVC] 10bit.mkv   8.93 ГБ
Поблагодарили: 13
375509, 7654321, brukvalub, bs158250, Deeee, deni, geopatron, igor3176, inoy, makss333, murat34, NoMaD, pleha127
Admin
4275018.93 ГБ

Добавление нового комментария

Добавление комментариев доступно только зарегистрированным/авторизованным пользователям.
Аватар Cthulhu
  Cthulhu  
Vodiville писал(а):
А что с цветностью? Холодные цвета...
HDR
Аватар не указан
  Vodiville  
А что с цветностью? Холодные цвета...
Аватар Студень
  Студень  
Всё очень спорно.
rd=3
tu-inter-depth=1 / tu-intra-depth=1
psy-rdoq=0.00
Аватар не указан
  WhiteFox  
А в этом релизе будут менять дорожку на лицензионную?