💬 Мини-чат

Убедительная просьба не обсуждать тут политику.
AdminЛёшикоБэст, вроде потихоньку идёт. Подождем, если не докачается, то встану.
AdminЛёшикоБэст, перекачайте торрент, а то в профиле не отображается ждете или уже нет
ЛёшикоБэстРаздайте, пожалуйста, Неудержимые / The Expendables (2010) [Theatrical Cut] BDRip 1080p [HEVC] 10 bit от Spartanec1308
OldGamerДа, есть.
ЛёшикоБэстДоброго вечера) Скажите пожалуйста, есть ли в планах сделать релиз дилогии "Зорро" с Антонио Бандерасом?
HANNIBALAdmin, 👍
AdminГоро, встал
ГороРаздайте, пожалуйста, Хищники / Predators (2010) BDRip 1080p [HEVC] 10 bit от HANNIBAL
AdminHANNIBAL, привет. Не помню за сколько брал, но продление в этот раз обошлось примерно в $14 со всякими комиссиями. А аренда VDS обходится примерно в $30-35 за год. Не исключено, что всё это подорожает. Пока что пожертвования с трудом покрывают расходы. Иногда если требуется и со своего кармана оплачиваю, не страшно. Прорвемся.
HANNIBALсколько сейчас стоит
HANNIBALAdmin, ПРИВЕТ
AdminНаконец-то получил банковскую карту. Продлил доменное имя (адрес сайта) на год.
  • ivan_1965
Отправка сообщений доступна только зарегистрированным/авторизованным пользователям.
Онлайн (за 10 мин.): 1

Время первых (2017) [GER Transfer] BDRip 1080p [HEVC] 10 bit от M@kSIMus

HEVC
10 bit
Обложка Время первых (2017) [GER Transfer] BDRip 1080p [HEVC] 10 bit от M@kSIMus Год: 2017
Страна: Россия
Студия: Базелевс Продакшн, CGF, Третий Рим
Жанр: Приключения, Триллер
Продолжительность: 02:16:57

Режиссер: Дмитрий Киселёв
В ролях: Евгений Миронов, Константин Хабенский, Владимир Ильин, Анатолий Котенёв, Александра Урсуляк, Елена Панова, Александр Новин, Марта Тимофеева, Геннадий Смирнов, Юрий Нифонтов

Описание: 60-е. Разгар холодной войны. Две супердержавы, СССР и США бьются за первенство в космической гонке. Пока СССР впереди, на очереди — выход человека в открытый космос. За две недели до старта взрывается тестовый корабль. Времени на выявление причин нет. И пусть риски огромны, мы не можем уступить лидерство. Опытный военный летчик Павел Беляев и его напарник Алексей Леонов, необстрелянный и горячий, мечтающий о подвиге, — два человека, готовые шагнуть в неизвестность. Но никто не мог даже предположить всего, с чем им предстояло столкнуться в полете. В этой миссии все, что только можно, пошло не так…


Видео: 1920x812, 5970 Kbps
Аудио: AC3, 6 ch, 640 Kbps - РусскийРусский, Оригинал
Субтитры: Русские (форсированные)

Медиаинфо
Формат : Matroska
Версия формата : Version 4
Размер файла : 6,33 Гбайт
Продолжительность : 2 ч. 16 м.
Общий поток : 6612 Кбит/сек
Название фильма : Время первых (2017) [GER Transfer] Encoded_by_M@kSIMus
Дата кодирования : UTC 2019-10-21 10:50:09
Программа кодирования : mkvmerge v38.0.0 ('The Silent Type') 64-bit
Библиотека кодирования : libebml v1.3.9 + libmatroska v1.5.2
Обложка : Yes
Attachments : cover.jpg

Видео
Идентификатор : 1
Формат : HEVC
Формат/Информация : High Efficiency Video Coding
Профиль формата : Main 10@L4.1@High
Идентификатор кодека : V_MPEGH/ISO/HEVC
Продолжительность : 2 ч. 16 м.
Битрейт : 5970 Кбит/сек
Ширина : 1920 пикселей
Высота : 812 пикселей
Соотношение сторон : 2,35:1
Режим частоты кадров : Постоянный
Частота кадров : 23,976 (24000/1001) кадра/сек
Цветовое пространство : YUV
Субдискретизация насыщенности : 4:2:0
Битовая глубина : 10 бит
Бит/(Пиксели*Кадры) : 0.160
Размер потока : 5,71 Гбайт (90%)
Библиотека кодирования : x265 3.1+11-de920e0a3183:[Windows][clang 8.0.1][64 bit] 10bit
Настройки программы : cpuid=1049583 / frame-threads=5 / numa-pools=4 / wpp / no-pmode / no-pme / no-psnr / no-ssim / log-level=3 / input-csp=1 / input-res=1920x812 / interlace=0 / total-frames=0 / level-idc=41 / high-tier=1 / uhd-bd=0 / ref=5 / allow-non-conformance / no-repeat-headers / annexb / no-aud / no-hrd / info / hash=0 / no-temporal-layers / open-gop / min-keyint=24 / keyint=240 / gop-lookahead=0 / bframes=12 / b-adapt=2 / b-pyramid / bframe-bias=0 / rc-lookahead=40 / lookahead-slices=5 / scenecut=40 / radl=0 / no-splice / no-intra-refresh / ctu=32 / min-cu-size=8 / no-rect / no-amp / max-tu-size=32 / tu-inter-depth=4 / tu-intra-depth=4 / limit-tu=1 / rdoq-level=1 / dynamic-rd=0.00 / no-ssim-rd / signhide / no-tskip / nr-intra=0 / nr-inter=0 / no-constrained-intra / no-strong-intra-smoothing / max-merge=5 / limit-refs=1 / no-limit-modes / me=3 / subme=7 / merange=57 / temporal-mvp / no-hme / weightp / no-weightb / no-analyze-src-pics / deblock=-3:-3 / no-sao / no-sao-non-deblock / rd=3 / early-skip / no-rskip / no-fast-intra / no-tskip-fast / no-cu-lossless / b-intra / no-splitrd-skip / rdpenalty=0 / psy-rd=2.00 / psy-rdoq=1.00 / no-rd-refine / no-lossless / cbqpoffs=0 / crqpoffs=0 / rc=crf / crf=20.0 / qcomp=0.60 / qpstep=4 / stats-write=0 / stats-read=0 / vbv-maxrate=50000 / vbv-bufsize=50000 / vbv-init=0.9 / crf-max=0.0 / crf-min=0.0 / ipratio=1.40 / pbratio=1.30 / aq-mode=3 / aq-strength=1.00 / no-cutree / zone-count=0 / no-strict-cbr / qg-size=32 / no-rc-grain / qpmax=69 / qpmin=0 / no-const-vbv / sar=1 / overscan=0 / videoformat=5 / range=0 / colorprim=2 / transfer=2 / colormatrix=2 / chromaloc=0 / display-window=0cll=0,0 / min-luma=0 / max-luma=1023 / log2-max-poc-lsb=8 / vui-timing-info / vui-hrd-info / slices=1 / no-opt-qp-pps / no-opt-ref-list-length-pps / no-multi-pass-opt-rps / scenecut-bias=0.05 / no-opt-cu-delta-qp / no-aq-motion / no-hdr / no-hdr-opt / no-dhdr10-opt / no-idr-recovery-sei / analysis-reuse-level=5 / scale-factor=0 / refine-intra=0 / refine-inter=0 / refine-mv=0 / refine-ctu-distortion=0 / no-limit-sao / ctu-info=0 / no-lowpass-dct / refine-analysis-type=0 / copy-pic=1 / max-ausize-factor=1.0 / no-dynamic-refine / no-single-sei / no-hevc-aq / no-svt / no-field / qp-adaptation-range=1.00
Язык : Russian
Default : Да
Forced : Нет
Цветовой диапазон : Limited

Аудио
Идентификатор : 2
Формат : AC-3
Формат/Информация : Audio Coding 3
Коммерческое название : Dolby Digital
Идентификатор кодека : A_AC3
Продолжительность : 2 ч. 16 м.
Вид битрейта : Постоянный
Битрейт : 640 Кбит/сек
Каналы : 6 каналов
ChannelLayout : L R C LFE Ls Rs
Частота : 48,0 КГц
Частота кадров : 31,250 кадров/сек (1536 SPF)
Метод сжатия : С потерями
Размер потока : 627 Мбайт (10%)
Заголовок : Оригинал
Язык : Russian
Default : Да
Forced : Нет

Текст
Идентификатор : 3
Формат : UTF-8
Идентификатор кодека : S_TEXT/UTF8
Идентификатор кодека/Информация : UTF-8 Plain Text
Продолжительность : 2 ч. 3 м.
Битрейт : 0 бит/сек
ElementCount : 11
Размер потока : 886 байт (0%)
Заголовок : Rus Forced
Язык : Russian
Default : Да
Forced : Да

Меню
00:00:00.000 : :Chapter 01
00:09:43.249 : :Chapter 02
00:18:49.169 : :Chapter 03
00:30:08.056 : :Chapter 04
00:41:19.894 : :Chapter 05
00:51:33.924 : :Chapter 06
01:00:20.783 : :Chapter 07
01:09:47.308 : :Chapter 08
01:18:29.538 : :Chapter 09
01:30:06.901 : :Chapter 10
01:39:16.158 : :Chapter 11
01:49:17.175 : :Chapter 12
02:00:26.469 : :Chapter 13
02:11:54.740 : :Chapter 14
Загрузка...Cкриншот1 Время первых (2017) [GER Transfer] BDRip 1080p [HEVC] 10 bit от M@kSIMusЗагрузка...Cкриншот2 Время первых (2017) [GER Transfer] BDRip 1080p [HEVC] 10 bit от M@kSIMusЗагрузка...Cкриншот3 Время первых (2017) [GER Transfer] BDRip 1080p [HEVC] 10 bit от M@kSIMusЗагрузка...Cкриншот4 Время первых (2017) [GER Transfer] BDRip 1080p [HEVC] 10 bit от M@kSIMus
Сэмпл Торрент🧲 Магнет

Рейтинги КП и IMDB, кнопки "Позвать в чате" и "Спасибо", а также мультитрекерная статистика доступны только зарегистрированным/авторизованным пользователям!

Файлы: 1
  • Время первых (2017) [GER Transfer] BDRip 1080p [HEVC] 10 bit.mkv   6.33 ГБ
Поблагодарили: 16
375509, aacg, Alexeyall, Algabas, bitum, controller70, davidoff_k4, garant3v, IRIT, mat, MIGRANT, pipen033, sdell, shurabb, stormbringer, VardO
Admin
0835006.33 ГБ

Добавление нового комментария

Добавление комментариев доступно только зарегистрированным/авторизованным пользователям.