💬 Мини-чат

hunterА, да, и еще и люди, которые думают, что им все должны.
hunterrodina_45, Это все держится на энтузиазме и доброй воле делающих рипы и раздающих. Поэтому если хочется скачать, нужно ПРОСИТЬ, а не возмущатся. Так как либо много скачавших на раздаче, либо винты по 20ТБ . Однако многовато, как для хобби.
AdminПоздравляем всех девушек с международным женским днем! Берегите честь и достоинство. Именно они делают девушку красивой.
HANNIBALADVOKAT69, это не мой хам ))))
AdminПри том, что для нас всех это пока что хобби.
AdminADVOKAT69, некоторые думают, будто своими скачиваниями приносят нам пользу, вот и возмущаются.
ADVOKAT69и здесь хамы появились!с того сайта что-ли?
AdminПоддерживайте раздачи, раз не хотите, чтобы они были мертвы.
Adminrodina_45, зачем нам удалять? Вдруг оживут.
rodina_45какого хера половина torrent просто мертвы удалите их
rodina_45Раздайте, пожалуйста, Царевна-лягушка (1954) BDRip 1080p [HEVC] 10 bit от ADVOKAT69
joker63😪
HANNIBALС ГЛУБОЧАЙШИМИ СКОРБЬЮ И СОЖАЛЕНИЕМ СООБЩАЕМ ВАМ, ЧТО СЕГОДНЯ ОТ ОСЛОЖНЕНИЙ ВИРУСНОЙ ПНЕВМОНИИ, РАЗВИВШЕЙСЯ НА ФОНЕ ТЯЖЁЛОЙ ХРОНИЧЕСКОЙ ОБСТРУКТИВНОЙ БОЛЕЗНИ ЛЁГКИХ, УМЕР ИЗВЕСТНЫЙ АВТОР ВЫСОКО ЦЕНИМЫХ ИГРОВЫХ РЕПАКОВ, ИЗВЕСТНЫЙ В СЕТИ КАК XATAB.. МЫ ВСЕГДА БУДЕМ ПОМНИТЬ ЕГО И ЦЕНИТЬ ЕГО ТРУД.
StarLordAdmin, понял :)
AdminStarLord, можешь оставить. потом переоформишь.
AdminStarLord, либо переоформить на другой рип, либо залить левый торрент и сразу же удалить
StarLordAdmin, сломал систему :)) Как удалить один из анонсов?
XuMuKСообщение удалено (удалил: XuMuK)
Adminjustmkr, надо смотреть трассировку по IP
Adminjustmkr, возможно обрыв в пути.
  • OldGamer
  • ШУЗЕР
Отправка сообщений доступна только зарегистрированным/авторизованным пользователям.
Онлайн (за 10 мин.): 2

Дело о пеликанах / The Pelican Brief (1993) BDRip 1080p [HEVC] 10 bit от OldGamer (RG RIPS CLUB)

HEVC
10 bit
Обложка Дело о пеликанах / The Pelican Brief (1993) BDRip 1080p [HEVC] 10 bit от OldGamer (RG RIPS CLUB) Год: 1993
Страна: США
Студия: Warner Bros. Pictures Co.
Жанр: Триллер, Драма, Криминал, Детектив
Продолжительность: 02:21:09

Режиссер: Алан Дж. Пакула
В ролях: Джулия Робертс, Дензел Вашингтон, Сэм Шепард, Джон Хёрд, Тони Голдуин, Джеймс Сиккинг, Уильям Этертон, Роберт Калп, Стэнли Туччи, Хьюм Кронин

Описание: Студентка юридического факультета Дарби Шоу, узнав об убийстве двух членов Верховного суда США, начинает копаться в архивах и составляет свою версию того, кто может быть причастен к этому преступлению. Материалы, изложенные в досье, её преподаватель и, по совместительству, любовник передаёт своему приятелю — консультанту ФБР. После чего преподавателя-любовника взрывают в собственной машине. А на Дарби начинается настоящая охота. В поисках выхода она связывается с темнокожим журналистом влиятельной газеты Грэем Грантом и рассказывает ему содержание досье. Оказывается, дело имеет глубокую предысторию, связанную с нефтью и коррупцией. Нити этой истории тянутся в Белый Дом…


Исходник: Blu-Ray Remux 1080p (rutracker)
Видео: 1920x800 (2.40:1), 8878 Кбит/сек, HEVC (Main10@L.4.1@High)
Аудио1: AC3, 6 ch, 384 Kbps - РусскийРусский, Дублированный (Мост видео)
Аудио2: AC3, 2 ch, 192 Kbps - РусскийРусский, Дублированный (Варус видео)
Аудио3: AC3, 2 ch, 192 Kbps - РусскийРусский, Многоголосый (R5)
Аудио4: AC3, 2 ch, 192 Kbps - РусскийРусский, Многоголосый (NTV+)
Аудио5: AC3, 2 ch, 192 Kbps - РусскийРусский, Авторский (Алексей Михалёв)
Аудио6: AC3, 6 ch, 640 Kbps - EnglishEnglish, Original
Субтитры: Русские полные (SRT), English full (SRT)

Как за пару секунд удалить ненужные аудиодорожки и субтитры (Внимание! После удаления вы не сможете поддержать раздачу)

Лог (x265 info)
x265 [info]: frame I: 850, Avg QP:17.13 kb/s: 25497.36
x265 [info]: frame P: 34724, Avg QP:18.57 kb/s: 18630.37
x265 [info]: frame B: 167468, Avg QP:20.09 kb/s: 7029.50
x265 [info]: Weighted P-Frames: Y:7.1% UV:5.6%
x265 [info]: Weighted B-Frames: Y:5.7% UV:4.2%
x265 [info]: consecutive B-frames: 1.6% 2.7% 4.4% 25.2% 8.1% 26.3% 7.7% 20.6% 2.2% 0.9% 0.2% 0.1% 0.1%
x265 [info]: encoded 203042 frames in 188402.50s (1.08 fps), 9090.78 kb/s, Avg QP:19.82
Медиаинфо
Общее
Уникальный идентификатор : 105480370407191993856587157754416032568 (0x4F5AC7C7B82D53A0B029891A9B156B38)
Полное имя : D:\Дело.о.пеликанах.Pelican.Brief.1993.BDRip-HEVC.1080p.mkv
Формат : Matroska
Версия формата : Version 4
Размер файла : 10,7 Гбайт
Продолжительность : 2 ч. 21 м.
Общий поток : 10,9 Мбит/сек
Название фильма : Дело.о.пеликанах.Pelican.Brief.1993.BDRip-HEVC.1080p
Дата кодирования : UTC 2021-02-18 03:52:56
Программа кодирования : mkvmerge v53.0.0 ('Fool's Gold') 64-bit
Библиотека кодирования : libebml v1.4.1 + libmatroska v1.6.2

Видео
Идентификатор : 1
Формат : HEVC
Формат/Информация : High Efficiency Video Coding
Профиль формата : Main 10@L4.1@High
Идентификатор кодека : V_MPEGH/ISO/HEVC
Продолжительность : 2 ч. 21 м.
Битрейт : 8 878 Кбит/сек
Ширина : 1 920 пикселей
Высота : 800 пикселей
Соотношение сторон : 2,40:1
Режим частоты кадров : Постоянный
Частота кадров : 23,976 (24000/1001) кадра/сек
Цветовое пространство : YUV
Субдискретизация насыщенности : 4:2:0
Битовая глубина : 10 бит
Бит/(Пиксели*Кадры) : 0.241
Размер потока : 8,75 Гбайт (82%)
Заголовок : The Pelican Brief / Rip by OldGamer
Библиотека кодирования : x265 3.4+12-g9103319fc:[Windows][GCC 10.2.0][64 bit] 10bit
Настройки программы : cpuid=1111039 / frame-threads=3 / numa-pools=8 / wpp / no-pmode / no-pme / no-psnr / no-ssim / log-level=2 / input-csp=1 / input-res=1920x800 / interlace=0 / total-frames=203042 / level-idc=41 / high-tier=1 / uhd-bd=0 / ref=5 / no-allow-non-conformance / no-repeat-headers / annexb / no-aud / no-hrd / info / hash=0 / no-temporal-layers / open-gop / min-keyint=23 / keyint=240 / gop-lookahead=0 / bframes=12 / b-adapt=2 / b-pyramid / bframe-bias=0 / rc-lookahead=40 / lookahead-slices=0 / scenecut=40 / hist-scenecut=0 / radl=0 / no-splice / no-intra-refresh / ctu=32 / min-cu-size=8 / rect / amp / max-tu-size=32 / tu-inter-depth=4 / tu-intra-depth=4 / limit-tu=1 / rdoq-level=2 / dynamic-rd=0.00 / no-ssim-rd / signhide / no-tskip / nr-intra=0 / nr-inter=0 / no-constrained-intra / no-strong-intra-smoothing / max-merge=5 / limit-refs=3 / no-limit-modes / me=3 / subme=7 / merange=57 / temporal-mvp / no-frame-dup / no-hme / weightp / weightb / no-analyze-src-pics / deblock=-3:-3 / no-sao / no-sao-non-deblock / rd=6 / selective-sao=0 / no-early-skip / rskip / no-fast-intra / no-tskip-fast / no-cu-lossless / b-intra / no-splitrd-skip / rdpenalty=0 / psy-rd=2.00 / psy-rdoq=1.00 / no-rd-refine / no-lossless / cbqpoffs=0 / crqpoffs=0 / rc=crf / crf=18.6 / qcomp=0.60 / qpstep=4 / stats-write=0 / stats-read=0 / vbv-maxrate=50000 / vbv-bufsize=50000 / vbv-init=0.9 / crf-max=0.0 / crf-min=0.0 / ipratio=1.40 / pbratio=1.30 / aq-mode=1 / aq-strength=0.90 / no-cutree / zone-count=1 / zones: / start-frame=196877 / end-frame=203042 / qp=36 / no-strict-cbr / qg-size=32 / no-rc-grain / qpmax=69 / qpmin=0 / no-const-vbv / sar=1 / overscan=0 / videoformat=5 / range=0 / colorprim=2 / transfer=2 / colormatrix=2 / chromaloc=0 / display-window=0 / cll=0,0 / min-luma=0 / max-luma=1023 / log2-max-poc-lsb=8 / vui-timing-info / vui-hrd-info / slices=1 / no-opt-qp-pps / no-opt-ref-list-length-pps / no-multi-pass-opt-rps / scenecut-bias=0.00 / hist-threshold=0.01 / no-opt-cu-delta-qp / no-aq-motion / no-hdr10 / no-hdr10-opt / no-dhdr10-opt / no-idr-recovery-sei / analysis-reuse-level=0 / analysis-save-reuse-level=0 / analysis-load-reuse-level=0 / scale-factor=0 / refine-intra=0 / refine-inter=0 / refine-mv=1 / refine-ctu-distortion=0 / no-limit-sao / ctu-info=0 / no-lowpass-dct / refine-analysis-type=0 / copy-pic=1 / max-ausize-factor=1.0 / no-dynamic-refine / no-single-sei / no-hevc-aq / no-svt / no-field / qp-adaptation-range=1.00 / no-scenecut-aware-qpconformance-window-offsets / right=0 / bottom=0 / decoder-max-rate=0
Язык : English
Default : Да
Forced : Нет

Аудио #1
Идентификатор : 2
Формат : AC-3
Формат/Информация : Audio Coding 3
Коммерческое название : Dolby Digital
Идентификатор кодека : A_AC3
Продолжительность : 2 ч. 21 м.
Вид битрейта : Постоянный
Битрейт : 384 Кбит/сек
Каналы : 6 каналов
Channel layout : L R C LFE Ls Rs
Частота : 48,0 КГц
Частота кадров : 31,250 кадров/сек (1536 SPF)
Метод сжатия : С потерями
Размер потока : 388 Мбайт (4%)
Заголовок : DUB (Мост видео)
Язык : Russian
Service kind : Complete Main
Default : Да
Forced : Нет

Аудио #2
Идентификатор : 3
Формат : AC-3
Формат/Информация : Audio Coding 3
Коммерческое название : Dolby Digital
Идентификатор кодека : A_AC3
Продолжительность : 2 ч. 21 м.
Вид битрейта : Постоянный
Битрейт : 192 Кбит/сек
Каналы : 2 канала
Channel layout : L R
Частота : 48,0 КГц
Частота кадров : 31,250 кадров/сек (1536 SPF)
Метод сжатия : С потерями
Размер потока : 194 Мбайт (2%)
Заголовок : DUB (Варус видео)
Язык : Russian
Service kind : Complete Main
Default : Нет
Forced : Нет

Аудио #3
Идентификатор : 4
Формат : AC-3
Формат/Информация : Audio Coding 3
Коммерческое название : Dolby Digital
Идентификатор кодека : A_AC3
Продолжительность : 2 ч. 21 м.
Вид битрейта : Постоянный
Битрейт : 192 Кбит/сек
Каналы : 2 канала
Channel layout : L R
Частота : 48,0 КГц
Частота кадров : 31,250 кадров/сек (1536 SPF)
Метод сжатия : С потерями
Размер потока : 194 Мбайт (2%)
Заголовок : MVO (R5)
Язык : Russian
Service kind : Complete Main
Default : Нет
Forced : Нет

Аудио #4
Идентификатор : 5
Формат : AC-3
Формат/Информация : Audio Coding 3
Коммерческое название : Dolby Digital
Идентификатор кодека : A_AC3
Продолжительность : 2 ч. 21 м.
Вид битрейта : Постоянный
Битрейт : 192 Кбит/сек
Каналы : 2 канала
Channel layout : L R
Частота : 48,0 КГц
Частота кадров : 31,250 кадров/сек (1536 SPF)
Метод сжатия : С потерями
Размер потока : 194 Мбайт (2%)
Заголовок : MVO (NTV+)
Язык : Russian
Service kind : Complete Main
Default : Нет
Forced : Нет

Аудио #5
Идентификатор : 6
Формат : AC-3
Формат/Информация : Audio Coding 3
Коммерческое название : Dolby Digital
Идентификатор кодека : A_AC3
Продолжительность : 2 ч. 21 м.
Вид битрейта : Постоянный
Битрейт : 192 Кбит/сек
Каналы : 2 канала
Channel layout : L R
Частота : 48,0 КГц
Частота кадров : 31,250 кадров/сек (1536 SPF)
Метод сжатия : С потерями
Размер потока : 194 Мбайт (2%)
Заголовок : AVO (Алексей Михалёв)
Язык : Russian
Service kind : Complete Main
Default : Нет
Forced : Нет

Аудио #6
Идентификатор : 7
Формат : AC-3
Формат/Информация : Audio Coding 3
Коммерческое название : Dolby Digital
Идентификатор кодека : A_AC3
Продолжительность : 2 ч. 21 м.
Вид битрейта : Постоянный
Битрейт : 640 Кбит/сек
Каналы : 6 каналов
Channel layout : L R C LFE Ls Rs
Частота : 48,0 КГц
Частота кадров : 31,250 кадров/сек (1536 SPF)
Метод сжатия : С потерями
Размер потока : 646 Мбайт (6%)
Язык : English
Service kind : Complete Main
Default : Нет
Forced : Нет

Текст #1
Идентификатор : 8
Формат : UTF-8
Идентификатор кодека : S_TEXT/UTF8
Идентификатор кодека/Информация : UTF-8 Plain Text
Язык : Russian
Default : Нет
Forced : Нет

Текст #2
Идентификатор : 9
Формат : UTF-8
Идентификатор кодека : S_TEXT/UTF8
Идентификатор кодека/Информация : UTF-8 Plain Text
Язык : English
Default : Нет
Forced : Нет

Меню
00:00:00.000 : en:Credits
00:02:32.986 : en:Rosenberg's View
00:04:20.343 : en:Rendezvous in Shadows
00:07:47.508 : en:Rights and Rites of Privacy
00:09:48.337 : en:Death Strikes Twice
00:13:42.154 : en:Rally 'Round the Leader Time
00:16:25.901 : en:What to Look For
00:20:04.244 : en:A Girlfriend with a Theory
00:26:26.585 : en:Grantham's Source
00:29:42.822 : en:Coal's Source
00:33:19.998 : en:Taking Callahan's Breath Away
00:36:28.227 : en:Alone in Crowds
00:41:22.813 : en:Discussing Dog Tricks
00:43:16.176 : en:On the Run
00:45:32.146 : en:"Her Little Brief..."
00:47:41.984 : en:"Garcia" and "Alice" Call
00:51:00.140 : en:The Saddest Girl in the Quarter
00:55:29.159 : en:Khamel's New Assignment
00:57:17.308 : en:Out of the Closet
01:01:44.742 : en:Holding Hands with Death
01:05:48.611 : en:Grantham Takes His Chances
01:09:54.398 : en:Comparing Notes in the Back Seat
01:11:09.431 : en:One Piece of Common Ground
01:17:38.153 : en:Reaching Deep and High
01:21:08.154 : en:Suppositions Worth Exploring
01:23:41.933 : en:Joint Research
01:26:52.749 : en:Briefing the President
01:29:32.784 : en:George and Martha's Place
01:31:36.491 : en:Burgled and Shadowed
01:34:03.137 : en:Detective Work
01:37:08.697 : en:Linney Hallucinates
01:40:41.952 : en:A Missed Appointment
01:43:52.059 : en:"I Want You to Reach 25"
01:45:39.458 : en:A Secret Key
01:50:08.226 : en:Stalkers at the Bank
01:55:06.608 : en:Parking Garage Assassins
02:00:11.871 : en:Dead Man's Legacy
02:03:07.505 : en:A Breaking Story
02:05:17.635 : en:A Deal with the FBI
02:10:59.643 : en:Flight by Night
02:14:45.577 : en:Who Is Darby Shaw?
02:16:51.536 : en:End Credits
Сравнение скриншотов:
https://screenshotcomparison.com/comparison/11207 - с предыдущим рипом от M@kSIMus

Загрузка...Cкриншот1 Дело о пеликанах / The Pelican Brief (1993) BDRip 1080p [HEVC] 10 bit от OldGamer (RG RIPS CLUB)Загрузка...Cкриншот2 Дело о пеликанах / The Pelican Brief (1993) BDRip 1080p [HEVC] 10 bit от OldGamer (RG RIPS CLUB)Загрузка...Cкриншот3 Дело о пеликанах / The Pelican Brief (1993) BDRip 1080p [HEVC] 10 bit от OldGamer (RG RIPS CLUB)Загрузка...Cкриншот4 Дело о пеликанах / The Pelican Brief (1993) BDRip 1080p [HEVC] 10 bit от OldGamer (RG RIPS CLUB)
Релиз-группа: RIPS CLUB
Сэмпл Торрент🧲 Магнет

Раздача обновлена!
Перекодировано. Добавлены звуковые дорожки.

Рейтинги КП и IMDB, кнопки "Позвать в чате" и "Спасибо", а также мультитрекерная статистика сидов и пиров доступны только зарегистрированным/авторизованным пользователям!

Файлы: 1
  • Дело.о.пеликанах.Pelican.Brief.1993.BDRip-HEVC.1080p.mkv   10.73 ГБ
Поблагодарили: 11
aquarius, Brooklyn, diesel0000, Diman, donadar, makss333, medved2018, NoMaD, Nuclear70, SoulBoy, Undervest
OldGamer
013212510.73 ГБ

Добавление нового комментария

Добавление комментариев доступно только зарегистрированным/авторизованным пользователям.