💬 Мини-чат

OldGamerну и акустические излучатели собрать хорошие, типа Penaudio Legato Signature или похожие, тут надо тщательно собирать систему для прослушивания
OldGamerне помешает ещё посетить отоларинголога для промывки слухового аппарата от серных пробок специализированным сертифицированным раствором, это (промывка) имеет немаловажное значение
OldGamer😆🤐🤐
OldGamerи всё же лучше hi-end, с подключением кабелями типа Analysis-Plus Oval 9 из бескислородной меди и с их предварительным прогревом системой типа Nordost Vidar, иначе всё теряет смысл
XuMuKManson_Fan, не надо hi-end акустики, достаточно hi-fi. "Кристольность" на высоких частотах другая, в DTS кажется более "живым" звук. Но самая большая разница, когда сравниваешь АС3 с каким-нибудь DTS-HD MA
IRITРаздайте, пожалуйста, Байки из склепа: Демон ночи / Tales from the Crypt: Demon Knight (1995) BDRip 1080p [HEVC] 10 bit от druidblack
OldGamerManson_Fan, у меня нет hi-end акустики, поэтому не слушал, не знаю, может и есть разница. За других говорить не буду. В любом случае, продвинутым слухачам будет несложно найти, скачать и прикрепить дорожки требуемого им качества.
mafo2Manson_Fan, не все телевизоры поддерживают DTS. например, мой через встроенный плеер его не воспроизводит. можно конечно смотреть через ПК, но порой хочется и через ТВ.
Manson_FanOldGamer, "Скажите зачем релизёры звук DTS 768 kbps переделывают в AC3 640 kbps" Интересно, а разницу в качестве в фильмах кому то удавалось услышать?😕 мне вот нет
Manson_Fanникто еще не сравнивал HEVC и новый AV1?
IRITРаздайте, пожалуйста, Маньяк-полицейский 3: Знак молчания / Maniac Cop 3: Badge of Silence (1993) BDRip 1080p [HEVC] 10 bit от HANNIBAL
Spartanec1308С Днём Великой Победы!
BrooklynВсех с праздником! С Днем Великой Победы! Ура-Ура-Урааааааа
BrooklynADVOKAT69, Спасибо большое!
ADVOKAT69Операция «Ы» и другие приключения Шурика (1965) раздаю
mafo2С Днем Победы!
joker63Поздравляю всех с Днем Победы!
ADVOKAT69Admin, Спасибо деду за победу!Тебе за поздравление!
AdminADVOKAT69, Дедам спасибо.
ADVOKAT69Admin, спасибо большое!✋
  • Admin
Отправка сообщений доступна только зарегистрированным/авторизованным пользователям.
Онлайн (за 10 мин.): 1

Чёрные паруса / Black Sails (2016) [3 сезон] BDRip 1080p [HEVC] 10 bit от OldGamer (RG RIPS CLUB)

HEVC
10 bit
Обложка Чёрные паруса / Black Sails (2016) [3 сезон] BDRip 1080p [HEVC] 10 bit от OldGamer (RG RIPS CLUB) Год: 2016
Страна: ЮАР, США
Студия: Platinum Dunes, Quaker Moving Pictures, Film Afrika Worldwide
Жанр: Драма, Приключения
Продолжительность: 09:09:58

Режиссер: Стив Бойум, Алик Сахаров, Лукас Эттлин
В ролях: Тоби Стивенс, Ханна Нью, Люк Арнольд, Джессика Паркер Кеннеди, Шон Майкл, Зэк Макгоун, Клара Пэджет, Хаким Кае-Казим, Том Хоппер, Марк Райан

Описание: Британские войска продолжают уничтожать пиратские поселения, а Флинт и его союзники пытаются держать оборону. Кок пиратского судна Джон Сильвер считает, что военная стратегия Флинта лишь подвергает людей опасности. Пора предпринять что-то более эффективное. Да, пиратам удалось отвоевать остров, но территория Нью-Провиденса полностью разрушена. Верные товарищи Джеймса Флинта, Энн и Макс, подталкивают пирата к разумному действию, с помощью которого он сможет в очередной раз получить уважение союзников. Построить форт. Поддержав идею, пираты отправились на поиски древесины. Грядет рождение новой пиратской волны… Тем временем Элеонора заключает сделку с британской властью. Да, это спасает жизнь женщине, но подвергает пиратов новой опасности…


Исходник: Blu-Ray Remux 1080p (rutracker)
Видео: 1920x1080 (16:9), 4107-5651 Кбит/сек, HEVC (Main10@L.4.1@High)
Аудио1: AC3, 6 ch, 640 Kbps - РусскийРусский, Многоголосый (AlexFilm), без цензуры
Аудио2: AC3, 6 ch, 640 Kbps - РусскийРусский, Многоголосый (LostFilm)
Аудио3: AC3, 6 ch, 640 Kbps - РусскийРусский, Многоголосый (Amedia)
Аудио4: AC3, 6 ch, 640 Kbps - EnglishEnglish, Original
Субтитры: Русские полные (SRT), English full (SRT)

Как за пару секунд удалить ненужные аудиодорожки и субтитры (Внимание! После удаления вы не сможете поддержать раздачу)

Лог (x265 info)
x265 [info]: frame I: 298, Avg QP:17.77 kb/s: 17137.77
x265 [info]: frame P: 13037, Avg QP:18.94 kb/s: 11543.27
x265 [info]: frame B: 57609, Avg QP:21.29 kb/s: 3461.07
x265 [info]: Weighted P-Frames: Y:7.1% UV:5.5%
x265 [info]: Weighted B-Frames: Y:7.4% UV:5.6%
x265 [info]: consecutive B-frames: 2.0% 4.1% 5.9% 28.3% 10.9% 28.8% 7.9% 7.2% 2.3% 1.3% 0.3% 0.3% 0.2% 0.2% 0.4%
x265 [info]: encoded 70944 frames in 70375.24s (1.01 fps), 5003.74 kb/s, Avg QP:20.84
Медиаинфо
Общее
Уникальный идентификатор : 259843265557916773727446386650140459964 (0xC37BFE1AF008A2A44B31B657C43543BC)
Полное имя : \\.\Black.Sails.S03E08.mkv
Формат : Matroska
Версия формата : Version 4
Размер файла : 2,63 Гбайт
Продолжительность : 53 м. 31 с.
Общий поток : 7 024 Кбит/сек
Название фильма : Black.Sails.S03E08
Дата кодирования : UTC 2021-04-25 11:38:53
Программа кодирования : mkvmerge v56.1.0 ('My Friend') 64-bit
Библиотека кодирования : libebml v1.4.2 + libmatroska v1.6.4
Attachments : poster.jpg / backdrop.jpg

Видео
Идентификатор : 1
Формат : HEVC
Формат/Информация : High Efficiency Video Coding
Профиль формата : Main 10@L4.1@High
Идентификатор кодека : V_MPEGH/ISO/HEVC
Продолжительность : 49 м. 18 с.
Битрейт : 5 005 Кбит/сек
Ширина : 1 920 пикселей
Высота : 1 080 пикселей
Соотношение сторон : 16:9
Режим частоты кадров : Постоянный
Частота кадров : 23,976 (24000/1001) кадра/сек
Цветовое пространство : YUV
Субдискретизация насыщенности : 4:2:0
Битовая глубина : 10 бит
Бит/(Пиксели*Кадры) : 0.101
Размер потока : 1,72 Гбайт (66%)
Заголовок : Black.Sails.S03E08 / Rip by OldGamer
Библиотека кодирования : x265 3.5+1-ce882936d:[Windows][GCC 10.2.0][64 bit] 10bit
Настройки программы : cpuid=1111039 / frame-threads=3 / numa-pools=12 / wpp / no-pmode / no-pme / no-psnr / no-ssim / log-level=2 / input-csp=1 / input-res=1920x1080 / interlace=0 / total-frames=70944 / level-idc=41 / high-tier=1 / uhd-bd=0 / ref=5 / no-allow-non-conformance / no-repeat-headers / annexb / no-aud / no-hrd / info / hash=0 / no-temporal-layers / open-gop / min-keyint=23 / keyint=240 / gop-lookahead=0 / bframes=14 / b-adapt=2 / b-pyramid / bframe-bias=0 / rc-lookahead=40 / lookahead-slices=0 / scenecut=40 / hist-scenecut=0 / radl=0 / no-splice / no-intra-refresh / ctu=32 / min-cu-size=8 / rect / amp / max-tu-size=32 / tu-inter-depth=4 / tu-intra-depth=4 / limit-tu=1 / rdoq-level=2 / dynamic-rd=0.00 / no-ssim-rd / signhide / no-tskip / nr-intra=0 / nr-inter=0 / no-constrained-intra / no-strong-intra-smoothing / max-merge=5 / limit-refs=3 / no-limit-modes / me=3 / subme=7 / merange=57 / temporal-mvp / no-frame-dup / no-hme / weightp / weightb / no-analyze-src-pics / deblock=-2:-2 / no-sao / no-sao-non-deblock / rd=6 / selective-sao=0 / no-early-skip / rskip / no-fast-intra / no-tskip-fast / no-cu-lossless / b-intra / no-splitrd-skip / rdpenalty=0 / psy-rd=2.00 / psy-rdoq=1.00 / no-rd-refine / no-lossless / cbqpoffs=0 / crqpoffs=0 / rc=crf / crf=20.5 / qcomp=0.70 / qpstep=4 / stats-write=0 / stats-read=0 / vbv-maxrate=50000 / vbv-bufsize=50000 / vbv-init=0.9 / min-vbv-fullness=50.0 / max-vbv-fullness=80.0 / crf-max=0.0 / crf-min=0.0 / ipratio=1.40 / pbratio=1.30 / aq-mode=2 / aq-strength=0.80 / no-cutree / zone-count=1 / zones: / start-frame=69269 / end-frame=70944 / qp=36 / no-strict-cbr / qg-size=32 / no-rc-grain / qpmax=69 / qpmin=0 / no-const-vbv / sar=1 / overscan=0 / videoformat=5 / range=0 / colorprim=2 / transfer=2 / colormatrix=2 / chromaloc=0 / display-window=0 / cll=0,0 / min-luma=0 / max-luma=1023 / log2-max-poc-lsb=8 / vui-timing-info / vui-hrd-info / slices=1 / no-opt-qp-pps / no-opt-ref-list-length-pps / no-multi-pass-opt-rps / scenecut-bias=0.00 / hist-threshold=0.03 / no-opt-cu-delta-qp / no-aq-motion / no-hdr10 / no-hdr10-opt / no-dhdr10-opt / no-idr-recovery-sei / analysis-reuse-level=0 / analysis-save-reuse-level=0 / analysis-load-reuse-level=0 / scale-factor=0 / refine-intra=0 / refine-inter=0 / refine-mv=1 / refine-ctu-distortion=0 / no-limit-sao / ctu-info=0 / no-lowpass-dct / refine-analysis-type=0 / copy-pic=1 / max-ausize-factor=1.0 / no-dynamic-refine / no-single-sei / no-hevc-aq / no-svt / no-field / qp-adaptation-range=1.00 / scenecut-aware-qp=0conformance-window-offsets / right=0 / bottom=0 / decoder-max-rate=0 / no-vbv-live-multi-pass
Язык : English
Default : Да
Forced : Нет

Аудио #1
Идентификатор : 2
Формат : AC-3
Формат/Информация : Audio Coding 3
Коммерческое название : Dolby Digital
Идентификатор кодека : A_AC3
Продолжительность : 49 м. 19 с.
Вид битрейта : Постоянный
Битрейт : 640 Кбит/сек
Каналы : 6 каналов
Channel layout : L R C LFE Ls Rs
Частота : 48,0 КГц
Частота кадров : 31,250 кадров/сек (1536 SPF)
Метод сжатия : С потерями
Задержка видео : 25 мс.
Размер потока : 226 Мбайт (8%)
Заголовок : MVO (AlexFilm)
Язык : Russian
Service kind : Complete Main
Default : Нет
Forced : Нет

Аудио #2
Идентификатор : 3
Формат : AC-3
Формат/Информация : Audio Coding 3
Коммерческое название : Dolby Digital
Идентификатор кодека : A_AC3
Продолжительность : 49 м. 26 с.
Вид битрейта : Постоянный
Битрейт : 640 Кбит/сек
Каналы : 6 каналов
Channel layout : L R C LFE Ls Rs
Частота : 48,0 КГц
Частота кадров : 31,250 кадров/сек (1536 SPF)
Метод сжатия : С потерями
Задержка видео : 25 мс.
Размер потока : 226 Мбайт (8%)
Заголовок : MVO (LostFilm)
Язык : Russian
Service kind : Complete Main
Default : Да
Forced : Нет

Аудио #3
Идентификатор : 4
Формат : AC-3
Формат/Информация : Audio Coding 3
Коммерческое название : Dolby Digital
Идентификатор кодека : A_AC3
Продолжительность : 49 м. 15 с.
Вид битрейта : Постоянный
Битрейт : 640 Кбит/сек
Каналы : 6 каналов
Channel layout : L R C LFE Ls Rs
Частота : 48,0 КГц
Частота кадров : 31,250 кадров/сек (1536 SPF)
Метод сжатия : С потерями
Размер потока : 225 Мбайт (8%)
Заголовок : MVO (AMedia)
Язык : Russian
Service kind : Complete Main
Default : Нет
Forced : Нет

Аудио #4
Идентификатор : 5
Формат : AC-3
Формат/Информация : Audio Coding 3
Коммерческое название : Dolby Digital
Настройки формата : Dolby Surround EX
Идентификатор кодека : A_AC3
Продолжительность : 53 м. 31 с.
Вид битрейта : Постоянный
Битрейт : 640 Кбит/сек
Каналы : 6 каналов
Channel layout : L R C LFE Ls Rs
Частота : 48,0 КГц
Частота кадров : 31,250 кадров/сек (1536 SPF)
Метод сжатия : С потерями
Размер потока : 245 Мбайт (9%)
Язык : English
Service kind : Complete Main
Default : Нет
Forced : Нет

Текст #1
Идентификатор : 6
Формат : UTF-8
Идентификатор кодека : S_TEXT/UTF8
Идентификатор кодека/Информация : UTF-8 Plain Text
Продолжительность : 48 м. 0 с.
Битрейт : 98 бит/сек
Count of elements : 633
Размер потока : 34,7 Кбайт (0%)
Язык : Russian
Default : Нет
Forced : Нет

Текст #2
Идентификатор : 7
Формат : UTF-8
Идентификатор кодека : S_TEXT/UTF8
Идентификатор кодека/Информация : UTF-8 Plain Text
Продолжительность : 48 м. 8 с.
Битрейт : 71 бит/сек
Count of elements : 780
Размер потока : 25,4 Кбайт (0%)
Язык : English
Default : Нет
Forced : Нет

Меню
00:00:00.000 : :Chapter 01
00:00:55.889 : :Chapter 02
00:02:27.647 : :Chapter 03
00:12:48.768 : :Chapter 04
00:21:36.962 : :Chapter 05
00:27:35.528 : :Chapter 06
00:39:49.720 : :Chapter 07
00:48:11.388 : :Chapter 08
00:49:17.955 : :Chapter 09
Загрузка...Cкриншот1 Чёрные паруса / Black Sails (2016) [3 сезон] BDRip 1080p [HEVC] 10 bit от OldGamer (RG RIPS CLUB)Загрузка...Cкриншот2 Чёрные паруса / Black Sails (2016) [3 сезон] BDRip 1080p [HEVC] 10 bit от OldGamer (RG RIPS CLUB)Загрузка...Cкриншот3 Чёрные паруса / Black Sails (2016) [3 сезон] BDRip 1080p [HEVC] 10 bit от OldGamer (RG RIPS CLUB)Загрузка...Cкриншот4 Чёрные паруса / Black Sails (2016) [3 сезон] BDRip 1080p [HEVC] 10 bit от OldGamer (RG RIPS CLUB)
Релиз-группа: RIPS CLUB
Сэмпл Торрент🧲 Магнет

Раздача обновлена!
Перекодировано. Добавлена оригинальная дорожка, устранён рассинхрон субтитров.

Рейтинги КП и IMDB, кнопки "Позвать в чате" и "Спасибо", а также мультитрекерная статистика доступны только зарегистрированным/авторизованным пользователям!

Файлы: 10
  • Чёрные.паруса.Black.Sails.S03.2016.BDRip-HEVC.1080p
    • Black.Sails.S03E01.mkv   3.47 ГБ
    • Black.Sails.S03E02.mkv   2.85 ГБ
    • Black.Sails.S03E03.mkv   3.15 ГБ
    • Black.Sails.S03E04.mkv   2.71 ГБ
    • Black.Sails.S03E05.mkv   2.8 ГБ
    • Black.Sails.S03E06.mkv   2.47 ГБ
    • Black.Sails.S03E07.mkv   2.81 ГБ
    • Black.Sails.S03E08.mkv   2.63 ГБ
    • Black.Sails.S03E09.mkv   2.71 ГБ
    • Black.Sails.S03E10.mkv   2.5 ГБ
Поблагодарили: 11
375509, aacg, Alex302, Chance, InSpector, joker63, Koupets, Scythain, Tony, VIKING, Херсонец
OldGamer
04781 (10)  28.08 ГБ

Добавление нового комментария

Добавление комментариев доступно только зарегистрированным/авторизованным пользователям.