💬 Мини-чат

BrooklynOldGamer, Ок, спасибо, качаю.
OldGamerBrooklyn, они все на раздаче пока что
BrooklynOldGamer, Пораздавайте, пожалуйста, все сезоны сериала "Гримм" ближайшие 3 дня, очень хочу их забрать. Качество отличное. Заранее Благодарен.
StarLordСообщение удалено (удалил: StarLord)
OldGamerвыводить
mafo2Admin, можно вывести, наглядно будет
StarLordAdmin, +
AdminНадпись HDR выводить на обложку?
OldGamerGiggalo, но лучше всего вообще не затрагивайте этот ключ, по умолчанию будет установлено оптимальное значение
OldGamerGiggalo, но если уж очень хочется то пишите --frame-threads 3
OldGamerGiggalo, а зачем его менять?) нужное значение устанавливается автоматически
GiggaloДобрый вечер всем! OldGamer Покажи пожалуйста почему когда пишу в командной строке frame-threads=3 он не меняется. Какой там стоит 13 он его и держит, а ругие установки спокойно меняет?
AdminStarLord, спасибо. Пока сойдет.
StarLordAdmin, ага, вижу
StarLordAdmin, а как должно брать?
AdminStarLord, ты шаришь?
AdminStarLord, у меня сейчас такая, но с точками беда. Доработать бы (https?://([-\w\.]+)+(:\d+)?(/([-\w/_:%]*(\.\w+)*(\?\S+)?)?)?)
AdminStarLord, скрины в bb некорректно берет
StarLordwww, ftp(s), http(s), #, :, &
StarLordAdmin, все мои кейсы покрыла
  • StarLord
  • Alex302
  • and50
  • InSpector
  • moonson
Отправка сообщений доступна только зарегистрированным/авторизованным пользователям.
Онлайн (за 10 мин.): 5

Индиана Джонс и Королевство хрустального черепа / Indiana Jones and the Kingdom of the Crystal Skull (2008) BDRip 1080p [HEVC] 10 bit от Cthulhu (RG KORSAR)

HEVC
10 bit
Обложка Индиана Джонс и Королевство хрустального черепа / Indiana Jones and the Kingdom of the Crystal Skull (2008) BDRip 1080p [HEVC] 10 bit от Cthulhu (RG KORSAR) Год: 2008
Страна: США
Студия: Lucasfilm Ltd., Paramount Pictures
Жанр: Боевик, Приключения
Продолжительность: 02:02:31

Режиссер: Стивен Спилберг
В ролях: Харрисон Форд, Кейт Бланшетт, Карен Аллен, Шайа ЛаБаф, Рэй Уинстон, Джон Хёрт, Джим Бродбент, Игорь Жижикин, Дмитрий Дьяченко, Илья Волох

Описание: 1957 год, разгар холодной войны. Советские солдаты, возглавляемые агентом Ириной Спалько, похищают Мэрион Рэйвенвуд — давнюю возлюбленную Индианы Джонса, ставя профессора перед выбором: бездействие и смерть Мэрион или помощь советской разведке в поисках легендарного Хрустального черепа в обмен на свободу женщины.


Видео: 1920x800, 9965 Kbps
Аудио1: AC3, 6 ch, 640 Kbps - РусскийРусский, Дублированный (Пифагор)
Аудио2: AC3, 6 ch, 640 Kbps - РусскийРусский, Многоголосый (Киномания)
Аудио3: AC3, 6 ch, 640 Kbps - РусскийРусский, Многоголосый (Кравец)
Аудио4: AC3, 6 ch, 640 Kbps - РусскийРусский, Одноголосый (Гаврилов)
Аудио5: AC3, 6 ch, 640 Kbps - РусскийРусский, Одноголосый (Сербин)
Аудио6: AC3, 6 ch, 640 Kbps - РусскийРусский, Одноголосый (Киреев по переводу Никольского)
Аудио7: AC3, 6 ch, 448 Kbps - УкраинскийУкраинский, Дублированный (DVD)
Аудио8: AC3, 6 ch, 640 Kbps - АнглийскийАнглийский, Оригинал
Субтитры: Русские, украинские, английские

Как за пару секунд удалить ненужные аудиодорожки и субтитры (Внимание! После удаления вы не сможете поддержать раздачу)

Медиаинфо
x265 [info]: frame I: 1566, Avg QP:18.08 kb/s: 29995.69
x265 [info]: frame P: 42938, Avg QP:19.78 kb/s: 18949.11
x265 [info]: frame B: 131753, Avg QP:21.87 kb/s: 6797.56
x265 [info]: consecutive B-frames: 6.3% 4.4% 8.3% 60.8% 10.6% 8.0% 0.9% 0.6% 0.1% 0.0% 0.0%

General
Unique ID : 136307919986429032963202587470110847080 (0x668BF352637B738450BED0FBAE12F068)
Complete name : H:\HEVC4\Индиана Джонс (1981-2008)\Индиана Джонс и Королевство хрустального черепа (2008) BDRip-HEVC 1080p - KORSAR.mkv
Format : Matroska
Format version : Version 4 / Version 2
File size : 12.7 GiB
Duration : 2 h 2 min
Overall bit rate : 14.9 Mb/s
Movie name : Indiana Jones and the Kingdom of the Crystal Skull (2008)_rip_by_Cthulhu
Encoded date : UTC 2019-10-26 13:09:59
Writing application : mkvmerge v37.0.0 ('Leave It') 64-bit
Writing library : libebml v1.3.9 + libmatroska v1.5.2
Cover : Yes
Attachments : cover8.jpg

Video
ID : 1
Format : HEVC
Format/Info : High Efficiency Video Coding
Format profile : Main 10@L4.1@High
Codec ID : V_MPEGH/ISO/HEVC
Duration : 2 h 2 min
Bit rate : 9 965 kb/s
Width : 1 920 pixels
Height : 800 pixels
Display aspect ratio : 2.40:1
Frame rate mode : Constant
Frame rate : 23.976 (24000/1001) FPS
Color space : YUV
Chroma subsampling : 4:2:0
Bit depth : 10 bits
Bits/(Pixel*Frame) : 0.271
Stream size : 8.53 GiB (67%)
Writing library : x265 3.2+5-a3a088a7262f:[Windows][GCC 9.2.0][64 bit] 10bit
Encoding settings : cpuid=1111039 / frame-threads=4 / numa-pools=16 / wpp / no-pmode / no-pme / no-psnr / no-ssim / log-level=2 / input-csp=1 / input-res=1920x800 / interlace=0 / total-frames=176257 / level-idc=41 / high-tier=1 / uhd-bd=0 / ref=5 / no-allow-non-conformance / no-repeat-headers / annexb / no-aud / no-hrd / info / hash=0 / no-temporal-layers / open-gop / min-keyint=23 / keyint=240 / gop-lookahead=0 / bframes=10 / b-adapt=2 / b-pyramid / bframe-bias=0 / rc-lookahead=60 / lookahead-slices=1 / scenecut=40 / radl=0 / no-splice / no-intra-refresh / ctu=32 / min-cu-size=8 / rect / amp / max-tu-size=32 / tu-inter-depth=4 / tu-intra-depth=4 / limit-tu=1 / rdoq-level=2 / dynamic-rd=0.00 / no-ssim-rd / signhide / no-tskip / nr-intra=0 / nr-inter=0 / no-constrained-intra / no-strong-intra-smoothing / max-merge=5 / limit-refs=3 / limit-modes / me=3 / subme=7 / merange=57 / temporal-mvp / no-hme / weightp / weightb / no-analyze-src-pics / deblock=-2:-1 / no-sao / no-sao-non-deblock / rd=6 / selective-sao=0 / no-early-skip / no-rskip / no-fast-intra / no-tskip-fast / no-cu-lossless / no-b-intra / no-splitrd-skip / rdpenalty=0 / psy-rd=2.00 / psy-rdoq=1.07 / no-rd-refine / no-lossless / cbqpoffs=0 / crqpoffs=0 / rc=crf / crf=18.5 / qcomp=0.72 / qpstep=4 / stats-write=0 / stats-read=0 / vbv-maxrate=50000 / vbv-bufsize=50000 / vbv-init=0.9 / crf-max=0.0 / crf-min=0.0 / ipratio=1.40 / pbratio=1.30 / aq-mode=1 / aq-strength=1.00 / no-cutree / zone-count=1 / zones: / start-frame=168068 / end-frame=176256 / qp=35 / no-strict-cbr / qg-size=32 / no-rc-grain / qpmax=69 / qpmin=0 / no-const-vbv / sar=1 / overscan=0 / videoformat=5 / range=0 / colorprim=1 / transfer=1 / colormatrix=1 / chromaloc=0 / display-window=0 / cll=0,0 / min-luma=0 / max-luma=1023 / log2-max-poc-lsb=8 / vui-timing-info / vui-hrd-info / slices=1 / no-opt-qp-pps / no-opt-ref-list-length-pps / no-multi-pass-opt-rps / scenecut-bias=0.05 / no-opt-cu-delta-qp / no-aq-motion / no-hdr / no-hdr-opt / no-dhdr10-opt / no-idr-recovery-sei / analysis-reuse-level=5 / scale-factor=0 / refine-intra=0 / refine-inter=0 / refine-mv=1 / refine-ctu-distortion=0 / no-limit-sao / ctu-info=0 / no-lowpass-dct / refine-analysis-type=0 / copy-pic=1 / max-ausize-factor=1.0 / no-dynamic-refine / no-single-sei / hevc-aq / no-svt / no-field / qp-adaptation-range=2.00
Language : English
Default : Yes
Forced : No
Color range : Limited
Color primaries : BT.709
Transfer characteristics : BT.709
Matrix coefficients : BT.709

Audio #1
ID : 2
Format : AC-3
Format/Info : Audio Coding 3
Commercial name : Dolby Digital
Codec ID : A_AC3
Duration : 2 h 2 min
Bit rate mode : Constant
Bit rate : 640 kb/s
Channel(s) : 6 channels
Channel layout : L R C LFE Ls Rs
Sampling rate : 48.0 kHz
Frame rate : 31.250 FPS (1536 SPF)
Bit depth : 16 bits
Compression mode : Lossy
Stream size : 561 MiB (4%)
Title : DUB (Пифагор)
Language : Russian
Service kind : Complete Main
Default : Yes
Forced : No

Audio #2
ID : 3
Format : AC-3
Format/Info : Audio Coding 3
Commercial name : Dolby Digital
Codec ID : A_AC3
Duration : 2 h 2 min
Bit rate mode : Constant
Bit rate : 640 kb/s
Channel(s) : 6 channels
Channel layout : L R C LFE Ls Rs
Sampling rate : 48.0 kHz
Frame rate : 31.250 FPS (1536 SPF)
Bit depth : 16 bits
Compression mode : Lossy
Stream size : 561 MiB (4%)
Title : MVO (Киномания)
Language : Russian
Service kind : Complete Main
Default : No
Forced : No

Audio #3
ID : 4
Format : AC-3
Format/Info : Audio Coding 3
Commercial name : Dolby Digital
Codec ID : A_AC3
Duration : 2 h 2 min
Bit rate mode : Constant
Bit rate : 640 kb/s
Channel(s) : 6 channels
Channel layout : L R C LFE Ls Rs
Sampling rate : 48.0 kHz
Frame rate : 31.250 FPS (1536 SPF)
Bit depth : 16 bits
Compression mode : Lossy
Stream size : 561 MiB (4%)
Title : MVO (Кравец)
Language : Russian
Service kind : Complete Main
Default : No
Forced : No

Audio #4
ID : 5
Format : AC-3
Format/Info : Audio Coding 3
Commercial name : Dolby Digital
Codec ID : A_AC3
Duration : 2 h 2 min
Bit rate mode : Constant
Bit rate : 640 kb/s
Channel(s) : 6 channels
Channel layout : L R C LFE Ls Rs
Sampling rate : 48.0 kHz
Frame rate : 31.250 FPS (1536 SPF)
Bit depth : 16 bits
Compression mode : Lossy
Stream size : 561 MiB (4%)
Title : AVO (Гаврилов)
Language : Russian
Service kind : Complete Main
Default : No
Forced : No

Audio #5
ID : 6
Format : AC-3
Format/Info : Audio Coding 3
Commercial name : Dolby Digital
Codec ID : A_AC3
Duration : 2 h 2 min
Bit rate mode : Constant
Bit rate : 640 kb/s
Channel(s) : 6 channels
Channel layout : L R C LFE Ls Rs
Sampling rate : 48.0 kHz
Frame rate : 31.250 FPS (1536 SPF)
Bit depth : 16 bits
Compression mode : Lossy
Stream size : 561 MiB (4%)
Title : AVO (Сербин)
Language : Russian
Service kind : Complete Main
Default : No
Forced : No

Audio #6
ID : 7
Format : AC-3
Format/Info : Audio Coding 3
Commercial name : Dolby Digital
Codec ID : A_AC3
Duration : 2 h 2 min
Bit rate mode : Constant
Bit rate : 640 kb/s
Channel(s) : 6 channels
Channel layout : L R C LFE Ls Rs
Sampling rate : 48.0 kHz
Frame rate : 31.250 FPS (1536 SPF)
Bit depth : 16 bits
Compression mode : Lossy
Stream size : 561 MiB (4%)
Title : AVO (Киреев по переводу Никольского)
Language : Russian
Service kind : Complete Main
Default : No
Forced : No

Audio #7
ID : 8
Format : AC-3
Format/Info : Audio Coding 3
Commercial name : Dolby Digital
Codec ID : A_AC3
Duration : 2 h 2 min
Bit rate mode : Constant
Bit rate : 448 kb/s
Channel(s) : 6 channels
Channel layout : L R C LFE Ls Rs
Sampling rate : 48.0 kHz
Frame rate : 31.250 FPS (1536 SPF)
Bit depth : 16 bits
Compression mode : Lossy
Stream size : 393 MiB (3%)
Title : UKR DUB (DVD)
Language : Ukrainian
Service kind : Complete Main
Default : No
Forced : No

Audio #8
ID : 9
Format : AC-3
Format/Info : Audio Coding 3
Commercial name : Dolby Digital
Codec ID : A_AC3
Duration : 2 h 2 min
Bit rate mode : Constant
Bit rate : 640 kb/s
Channel(s) : 6 channels
Channel layout : L R C LFE Ls Rs
Sampling rate : 48.0 kHz
Frame rate : 31.250 FPS (1536 SPF)
Bit depth : 16 bits
Compression mode : Lossy
Stream size : 561 MiB (4%)
Title : Original
Language : English
Service kind : Complete Main
Default : No
Forced : No

Text #1
ID : 10
Format : UTF-8
Codec ID : S_TEXT/UTF8
Codec ID/Info : UTF-8 Plain Text
Duration : 1 h 54 min
Bit rate : 72 b/s
Count of elements : 1055
Stream size : 61.1 KiB (0%)
Title : rus
Language : Russian
Default : No
Forced : No

Text #2
ID : 11
Format : UTF-8
Codec ID : S_TEXT/UTF8
Codec ID/Info : UTF-8 Plain Text
Duration : 1 h 54 min
Bit rate : 69 b/s
Count of elements : 1055
Stream size : 58.2 KiB (0%)
Title : ukr
Language : Ukrainian
Default : No
Forced : No

Text #3
ID : 12
Format : UTF-8
Codec ID : S_TEXT/UTF8
Codec ID/Info : UTF-8 Plain Text
Duration : 1 h 54 min
Bit rate : 42 b/s
Count of elements : 1045
Stream size : 35.9 KiB (0%)
Title : eng
Language : English
Default : No
Forced : No

Text #4
ID : 13
Format : UTF-8
Codec ID : S_TEXT/UTF8
Codec ID/Info : UTF-8 Plain Text
Duration : 1 h 55 min
Bit rate : 44 b/s
Count of elements : 1191
Stream size : 38.0 KiB (0%)
Title : eng SDH
Language : English
Default : No
Forced : No

Menu
00:00:00.000 : en:
00:07:20.482 : en:
00:13:10.498 : en:
00:21:42.926 : en:
00:27:38.364 : en:
00:36:57.507 : en:
00:46:33.916 : en:
00:55:36.458 : en:
01:05:45.483 : en:
01:12:07.030 : en:
01:21:51.907 : en:
01:29:12.012 : en:
01:36:03.173 : en:
01:44:22.213 : en:
01:51:08.161 : en:
01:55:53.947 : en:
Загрузка...Cкриншот1 Индиана Джонс и Королевство хрустального черепа / Indiana Jones and the Kingdom of the Crystal Skull (2008) BDRip 1080p [HEVC] 10 bit от Cthulhu (RG KORSAR)Загрузка...Cкриншот2 Индиана Джонс и Королевство хрустального черепа / Indiana Jones and the Kingdom of the Crystal Skull (2008) BDRip 1080p [HEVC] 10 bit от Cthulhu (RG KORSAR)Загрузка...Cкриншот3 Индиана Джонс и Королевство хрустального черепа / Indiana Jones and the Kingdom of the Crystal Skull (2008) BDRip 1080p [HEVC] 10 bit от Cthulhu (RG KORSAR)Загрузка...Cкриншот4 Индиана Джонс и Королевство хрустального черепа / Indiana Jones and the Kingdom of the Crystal Skull (2008) BDRip 1080p [HEVC] 10 bit от Cthulhu (RG KORSAR)
Релиз-группа: KORSAR
Сэмпл Торрент🧲 Магнет

Рейтинги КП и IMDB, кнопки "Позвать в чате" и "Спасибо", а также мультитрекерная статистика сидов и пиров доступны только зарегистрированным/авторизованным пользователям!

Файлы: 1
  • Индиана Джонс и Королевство хрустального черепа (2008) BDRip-HEVC 1080p - KORSAR.mkv   12.75 ГБ
Поблагодарили: 19
375509, 7654321, Alex302, ALEXIRKK, AntZ, curly2, denisptp4, Diman, Giggalo, iona999, MIGRANT, Narakot, NoMaD, Nuclear70, OldGamer, Scythain, serg1962, Summer Glau, Херсонец
Cthulhu
14000012.75 ГБ

Добавление нового комментария

Добавление комментариев доступно только зарегистрированным/авторизованным пользователям.
Аватар не указан
  Giggalo  
Добрый день. А не смогли бы Вы сделать трилогию "Назад в Будущее" приблизительно такого же размера. Эти фильмы уже считай классика, их охота иметь в фильмотеке хотя бы приблизительно видео гигабайт на 8-9.