💬 Мини-чат

OldGamerнет
Giggaloнет ли у кого в планах "Давайте потанцуем" 2004
GiggaloСообщение удалено (удалил: Giggalo)
StarLordOldGamer, как дела?)
StarLordOldGamer, ура, вернулся 😄
OldGamerRezident, можете скачать этот фильм от другого релизёра, там невелика разница, а раздающие точно есть
OldGamerGiggalo, https://tsya.ru/mnemonic.html
NoMaDСообщение удалено (удалил: NoMaD)
NoMaDСообщение удалено (удалил: NoMaD)
GiggaloСообщение удалено (удалил: Giggalo)
GiggaloСообщение удалено (удалил: Giggalo)
Spartanec1308Был днём
StarLordGiggalo, наверное отрубало беднягу, целый день его нету 😅
GiggaloСообщение удалено (удалил: Giggalo)
OldGamerДоброе. Работы много, некогда на перинах валяться.
GiggaloСообщение удалено (удалил: Giggalo)
GiggaloСообщение удалено (удалил: Giggalo)
  • OldGamer
  • qvnvqygospcocittov
  • Херсонец
Отправка сообщений доступна только зарегистрированным/авторизованным пользователям.
Онлайн (за 10 мин.): 3

21 мост / 21 Bridges (2019) [iTunes] BDRip 1080p [HEVC] 10 bit от HANNIBAL

HEVC
10 bit
Обложка 21 мост / 21 Bridges (2019) [iTunes] BDRip 1080p [HEVC] 10 bit от HANNIBAL Год: 2019
Страна: США
Студия: AGBO, Huayi Brothers, MWM Studios
Жанр: Боевик, Криминал, Триллер
Продолжительность: 01:39:57

Режиссер: Брайан Кирк
В ролях: Чедвик Боузман, Сиенна Миллер, Тейлор Китч, Дж.К. Симмонс, Стефан Джеймс, Кит Дэвид, Александр Сиддиг, Луис Канселми, Виктория Картахена, Гари Карр

Описание: Потомственный полицейский Андре Дэвис с самыми высокими показателями раскрываемости преступлений находится под внутренним расследованием, но, тем не менее, его привлекают к поимке двух опасных преступников. Те совершили дерзкое ограбление на Манхэттене и, оставив после себя 7 мёртвых полицейских, пустились в бега. У Дэвиса есть только одна ночь, чтобы поймать убийц, и первым делом он распоряжается перекрыть все выходы с Манхэттена, в том числе 21 мост.


Видео: 1920x804, 8283 Kbps
Аудио1: AC3, 6 ch, 384 Kbps - РусскийРусский, Дублированный (iTunes)
Аудио2: AC3, 6 ch, 640 Kbps - АнглийскийАнглийский, Оригинал
Субтитры: Отсутствуют

Как за пару секунд удалить ненужные аудиодорожки и субтитры (Внимание! После удаления вы не сможете поддержать раздачу)

Медиаинфо
General
Unique ID : 75598702774916576205937308190472948728 (0x38DFC7D1AC41C43E2F8AEDB841484BF8)
Complete name : H:\[HEVC]\21 Bridges (2019) BDRip 1080p [HEVC] 10bit.mkv
Format : Matroska
Format version : Version 4
File size : 6.50 GiB
Duration : 1 h 39 min
Overall bit rate : 9 310 kb/s
Movie name : 21 Bridges 2019 from селезень
Encoded date : UTC 2020-02-10 15:44:03
Writing application : mkvmerge v25.0.0 ('Prog Noir') 64-bit
Writing library : libebml v1.3.6 + libmatroska v1.4.9 / Lavf57.71.100
Attachments : poster.jpg
ENCODING_INFO : MATROSKA,WEBM > MKV Пользовательский / H264 > X265 CRF 19.0 Slow
Language : und

Video
ID : 1
Format : HEVC
Format/Info : High Efficiency Video Coding
Format profile : Main 10@L4.1@High
Codec ID : V_MPEGH/ISO/HEVC
Duration : 1 h 39 min
Bit rate : 8 283 kb/s
Width : 1 920 pixels
Height : 804 pixels
Display aspect ratio : 2.40:1
Frame rate mode : Constant
Frame rate : 23.976 (24000/1001) FPS
Color space : YUV
Chroma subsampling : 4:2:0
Bit depth : 10 bits
Bits/(Pixel*Frame) : 0.224
Stream size : 5.78 GiB (89%)
Writing library : x265 3.1+7-147fb92c5ed5:[Windows][clang 8.0.0][64 bit] 10bit
Encoding settings : cpuid=1111039 / frame-threads=13 / wpp / no-pmode / no-pme / no-psnr / no-ssim / log-level=3 / input-csp=1 / input-res=1920x804 / interlace=0 / total-frames=0 / level-idc=41 / high-tier=1 / uhd-bd=0 / ref=5 / allow-non-conformance / no-repeat-headers / annexb / no-aud / no-hrd / info / hash=0 / no-temporal-layers / open-gop / min-keyint=23 / keyint=240 / gop-lookahead=0 / bframes=8 / b-adapt=2 / b-pyramid / bframe-bias=0 / rc-lookahead=60 / lookahead-slices=4 / scenecut=60 / radl=0 / no-splice / no-intra-refresh / ctu=64 / min-cu-size=8 / rect / amp / max-tu-size=32 / tu-inter-depth=4 / tu-intra-depth=4 / limit-tu=4 / rdoq-level=2 / dynamic-rd=0.00 / no-ssim-rd / signhide / no-tskip / nr-intra=0 / nr-inter=0 / no-constrained-intra / no-strong-intra-smoothing / max-merge=5 / limit-refs=3 / limit-modes / me=3 / subme=7 / merange=57 / temporal-mvp / no-hme / weightp / weightb / no-analyze-src-pics / deblock=-3:-3 / no-sao / no-sao-non-deblock / rd=6 / no-early-skip / no-rskip / no-fast-intra / no-tskip-fast / no-cu-lossless / no-b-intra / no-splitrd-skip / rdpenalty=0 / psy-rd=2.00 / psy-rdoq=1.00 / no-rd-refine / no-lossless / cbqpoffs=0 / crqpoffs=0 / rc=crf / crf=19.0 / qcomp=0.60 / qpstep=4 / stats-write=0 / stats-read=0 / vbv-maxrate=50000 / vbv-bufsize=50000 / vbv-init=0.9 / crf-max=30.0 / crf-min=0.0 / ipratio=1.40 / pbratio=1.30 / aq-mode=2 / aq-strength=1.00 / no-cutree / zone-count=0 / no-strict-cbr / qg-size=32 / no-rc-grain / qpmax=69 / qpmin=0 / no-const-vbv / sar=1 / overscan=0 / videoformat=5 / range=0 / colorprim=1 / transfer=1 / colormatrix=1 / chromaloc=0 / display-window=0cll=0,0 / min-luma=0 / max-luma=1023 / log2-max-poc-lsb=8 / vui-timing-info / vui-hrd-info / slices=1 / no-opt-qp-pps / no-opt-ref-list-length-pps / no-multi-pass-opt-rps / scenecut-bias=0.05 / no-opt-cu-delta-qp / no-aq-motion / no-hdr / no-hdr-opt / no-dhdr10-opt / no-idr-recovery-sei / analysis-reuse-level=5 / scale-factor=0 / refine-intra=0 / refine-inter=0 / refine-mv=0 / refine-ctu-distortion=0 / no-limit-sao / ctu-info=0 / no-lowpass-dct / refine-analysis-type=70 / copy-pic=1 / max-ausize-factor=1.0 / no-dynamic-refine / no-single-sei / no-hevc-aq / no-svt / no-field / qp-adaptation-range=1.00
Language : English
Default : Yes
Forced : No
Color range : Limited
Color primaries : BT.709
Transfer characteristics : BT.709
Matrix coefficients : BT.709

Audio #1
ID : 2
Format : AC-3
Format/Info : Audio Coding 3
Commercial name : Dolby Digital
Codec ID : A_AC3
Duration : 1 h 39 min
Bit rate mode : Constant
Bit rate : 384 kb/s
Channel(s) : 6 channels
Channel layout : L R C LFE Ls Rs
Sampling rate : 48.0 kHz
Frame rate : 31.250 FPS (1536 SPF)
Compression mode : Lossy
Stream size : 275 MiB (4%)
Title : iTunes
Language : Russian
Service kind : Complete Main
Default : Yes
Forced : No

Audio #2
ID : 3
Format : AC-3
Format/Info : Audio Coding 3
Commercial name : Dolby Digital
Codec ID : A_AC3
Duration : 1 h 39 min
Bit rate mode : Constant
Bit rate : 640 kb/s
Channel(s) : 6 channels
Channel layout : L R C LFE Ls Rs
Sampling rate : 48.0 kHz
Frame rate : 31.250 FPS (1536 SPF)
Compression mode : Lossy
Stream size : 458 MiB (7%)
Title : eng
Language : English
Service kind : Complete Main
Default : No
Forced : No

Menu
00:00:00.000 : :Chapter 01
00:03:16.196 : :Chapter 02
00:07:48.510 : :Chapter 03
00:11:59.344 : :Chapter 04
00:16:54.722 : :Chapter 05
00:22:33.143 : :Chapter 06
00:30:54.561 : :Chapter 07
00:34:50.045 : :Chapter 08
00:40:16.414 : :Chapter 09
00:44:39.719 : :Chapter 10
00:50:54.718 : :Chapter 11
00:54:04.408 : :Chapter 12
00:58:52.320 : :Chapter 13
01:02:08.600 : :Chapter 14
01:06:19.601 : :Chapter 15
01:10:27.557 : :Chapter 16
01:16:19.617 : :Chapter 17
01:19:19.755 : :Chapter 18
01:25:15.110 : :Chapter 19
01:32:34.382 : :Chapter 20
Загрузка...Cкриншот1 21 мост / 21 Bridges (2019) [iTunes] BDRip 1080p [HEVC] 10 bit от HANNIBALЗагрузка...Cкриншот2 21 мост / 21 Bridges (2019) [iTunes] BDRip 1080p [HEVC] 10 bit от HANNIBALЗагрузка...Cкриншот3 21 мост / 21 Bridges (2019) [iTunes] BDRip 1080p [HEVC] 10 bit от HANNIBALЗагрузка...Cкриншот4 21 мост / 21 Bridges (2019) [iTunes] BDRip 1080p [HEVC] 10 bit от HANNIBAL
Сэмпл Торрент🧲 Магнет

Рейтинги КП и IMDB, кнопки "Позвать в чате" и "Спасибо", а также мультитрекерная статистика доступны только зарегистрированным/авторизованным пользователям!

Файлы: 1
  • 21 Bridges (2019) BDRip 1080p [HEVC] 10bit.mkv   6.5 ГБ
Поблагодарили: 11
ALEXIRKK, anderb, antaures, Brooklyn, bs158250, Diman, Kir, Laska020489, makss333, mvclub, sergeich
Admin
1112106.5 ГБ

Добавление нового комментария

Добавление комментариев доступно только зарегистрированным/авторизованным пользователям.
Аватар не указан
  anderb  
Начало мутное, потом стало намного лучше. Неплохой фильм