💬 Мини-чат

BrooklynOldGamer, Ок, спасибо, качаю.
OldGamerBrooklyn, они все на раздаче пока что
BrooklynOldGamer, Пораздавайте, пожалуйста, все сезоны сериала "Гримм" ближайшие 3 дня, очень хочу их забрать. Качество отличное. Заранее Благодарен.
StarLordСообщение удалено (удалил: StarLord)
OldGamerвыводить
mafo2Admin, можно вывести, наглядно будет
StarLordAdmin, +
AdminНадпись HDR выводить на обложку?
OldGamerGiggalo, но лучше всего вообще не затрагивайте этот ключ, по умолчанию будет установлено оптимальное значение
OldGamerGiggalo, но если уж очень хочется то пишите --frame-threads 3
OldGamerGiggalo, а зачем его менять?) нужное значение устанавливается автоматически
GiggaloДобрый вечер всем! OldGamer Покажи пожалуйста почему когда пишу в командной строке frame-threads=3 он не меняется. Какой там стоит 13 он его и держит, а ругие установки спокойно меняет?
AdminStarLord, спасибо. Пока сойдет.
StarLordAdmin, ага, вижу
StarLordAdmin, а как должно брать?
AdminStarLord, ты шаришь?
AdminStarLord, у меня сейчас такая, но с точками беда. Доработать бы (https?://([-\w\.]+)+(:\d+)?(/([-\w/_:%]*(\.\w+)*(\?\S+)?)?)?)
AdminStarLord, скрины в bb некорректно берет
StarLordwww, ftp(s), http(s), #, :, &
StarLordAdmin, все мои кейсы покрыла
  • OldGamer
  • InSpector
  • ivan_1965
Отправка сообщений доступна только зарегистрированным/авторизованным пользователям.
Онлайн (за 10 мин.): 3

Т-34 (2018) BDRip 1080p [HEVC] 10 bit от M@kSIMus

HEVC
10 bit
Обложка Т-34 (2018) BDRip 1080p [HEVC] 10 bit от M@kSIMus Год: 2018
Страна: Россия
Студия: Марс Медиа, Амедиа Продакшн
Жанр: Драма, Военный, Боевик, История
Продолжительность: 02:19:08

Режиссер: Алексей Сидоров
В ролях: Александр Петров, Виктор Добронравов, Ирина Старшенбаум, Винценц Кифер, Петр Скворцов, Семен Трескунов, Антон Богданов, Василий Уриевский, Василий Буткевич, Ярослав Штефан

Описание: В ноябре 1941 года в деревне Нефёдовка вчерашний курсант Николай Ивушкин был вынужден принять командование единственным уцелевшим танком и вступить в неравное противостояние с немецкой танковой ротой, приближавшейся к Москве. Силами противника командовал опытный гауптман Клаус Ягер, но это не спасло его подразделение от поражения, хоть самому ему и удалось ранить нашего курсанта. Летом 1944 года уже пытавшийся совершить несколько побегов Ивушкин попадет в концлагерь в Тюрингии. Там же оказывается и его «старый знакомый» Ягер, который решает использовать навыки Николая для тренировки немецких кадетов. Он распоряжается собрать тому команду и выдать только что прибывшую с фронта новую модель танка Т-34, не зная, что идею побега Ивушкин не оставил.


Видео: 1920x804, ~7306 Kbps
Аудио1: DTS, 6 ch, 768 Kbps - РусскийРусский, Оригинал
Аудио2: AC3, 6 ch, 640 Kbps - РусскийРусский, Оригинал
Субтитры: Русские

Как за пару секунд удалить ненужные аудиодорожки и субтитры (Внимание! После удаления вы не сможете поддержать раздачу)

Лог (x265 info)
x265 info: frame I: 2088, Avg QP:16.99 kb/s: 22245.50
x265 info: frame P: 38690, Avg QP:18.40 kb/s: 13036.70
x265 info: frame B: 159590, Avg QP:20.86 kb/s: 5720.71
x265 info: Weighted P-Frames: Y:8.8% UV:6.8%
x265 info: Weighted B-Frames: Y:8.5% UV:6.3%
x265 info: consecutive B-frames: 9.5% 5.9% 5.9% 31.4% 11.4% 14.3% 6.5% 8.1% 2.3% 1.8% 1.1% 1.2% 0.7%
x265 info: encoded 200368 frames in 215678.40s (0.93 fps), 7305.59 kb/s, Avg QP:20.34
Медиаинфо
Общее
Уникальный идентификатор : 50659398603698956112667414152540092690 (0x261CA530A5BFB288E2FD1C9443787912)
Полное имя : Т-34 (2018) BDRip 1080p [HEVC] 10 bit.mkv
Формат : Matroska
Версия формата : Version 4
Размер файла : 8,47 Гбайт
Продолжительность : 2 ч. 19 м.
Общий поток : 8717 Кбит/сек
Название фильма : Т-34 (2018) Encoded_by_M@kSIMus
Дата кодирования : UTC 2019-04-29 12:49:59
Программа кодирования : mkvmerge v30.1.0 ('Forever And More') 64-bit
Библиотека кодирования : libebml v1.3.6 + libmatroska v1.4.9
Обложка : Yes
Attachments : cover.jpg

Видео
Идентификатор : 1
Формат : HEVC
Формат/Информация : High Efficiency Video Coding
Профиль формата : Main 10@L4.1@High
Идентификатор кодека : V_MPEGH/ISO/HEVC
Продолжительность : 2 ч. 19 м.
Битрейт : 7306 Кбит/сек
Ширина : 1920 пикселей
Высота : 804 пикселя
Соотношение сторон : 2,40:1
Режим частоты кадров : Постоянный
Частота кадров : 24,000 кадра/сек
Цветовое пространство : YUV
Субдискретизация насыщенности : 4:2:0
Битовая глубина : 10 бит
Бит/(Пиксели*Кадры) : 0.197
Размер потока : 7,10 Гбайт (84%)
Заголовок : Т-34 (2018) Encoded_by_M@kSIMus
Библиотека кодирования : x265 2.9+9-f74003e88622:[Windows][GCC 8.2.0][64 bit] 10bit
Настройки программы : cpuid=1049583 / frame-threads=5 / numa-pools=4 / wpp / no-pmode / no-pme / no-psnr / no-ssim / log-level=3 / input-csp=1 / input-res=1920x804 / interlace=0 / total-frames=0 / level-idc=41 / high-tier=1 / uhd-bd=0 / ref=5 / allow-non-conformance / no-repeat-headers / annexb / no-aud / no-hrd / info / hash=0 / no-temporal-layers / open-gop / min-keyint=24 / keyint=240 / gop-lookahead=0 / bframes=12 / b-adapt=2 / b-pyramid / bframe-bias=0 / rc-lookahead=40 / lookahead-slices=5 / scenecut=40 / radl=0 / no-intra-refresh / ctu=32 / min-cu-size=8 / rect / no-amp / max-tu-size=32 / tu-inter-depth=4 / tu-intra-depth=4 / limit-tu=1 / rdoq-level=1 / dynamic-rd=0.00 / no-ssim-rd / signhide / no-tskip / nr-intra=0 / nr-inter=0 / no-constrained-intra / no-strong-intra-smoothing / max-merge=5 / limit-refs=3 / no-limit-modes / me=3 / subme=7 / merange=57 / temporal-mvp / weightp / weightb / no-analyze-src-pics / deblock=-3:-3 / no-sao / no-sao-non-deblock / rd=4 / no-early-skip / no-rskip / no-fast-intra / no-tskip-fast / no-cu-lossless / no-b-intra / no-splitrd-skip / rdpenalty=0 / psy-rd=2.00 / psy-rdoq=1.00 / no-rd-refine / no-lossless / cbqpoffs=0 / crqpoffs=0 / rc=crf / crf=21.0 / qcomp=0.60 / qpstep=4 / stats-write=0 / stats-read=0 / vbv-maxrate=50000 / vbv-bufsize=50000 / vbv-init=0.9 / crf-max=0.0 / crf-min=0.0 / ipratio=1.40 / pbratio=1.30 / aq-mode=3 / aq-strength=1.00 / no-cutree / zone-count=0 / no-strict-cbr / qg-size=32 / no-rc-grain / qpmax=69 / qpmin=0 / no-const-vbv / sar=1 / overscan=0 / videoformat=5 / range=0 / colorprim=1 / transfer=1 / colormatrix=1 / chromaloc=0 / display-window=0 / max-cll=0,0 / min-luma=0 / max-luma=1023 / log2-max-poc-lsb=8 / vui-timing-info / vui-hrd-info / slices=1 / no-opt-qp-pps / no-opt-ref-list-length-pps / no-multi-pass-opt-rps / scenecut-bias=0.05 / no-opt-cu-delta-qp / no-aq-motion / no-hdr / no-hdr-opt / no-dhdr10-opt / no-idr-recovery-sei / analysis-reuse-level=5 / scale-factor=0 / refine-intra=0 / refine-inter=0 / refine-mv=0 / no-limit-sao / ctu-info=0 / no-lowpass-dct / refine-mv-type=0 / copy-pic=1 / max-ausize-factor=1.0 / no-dynamic-refine / no-single-sei
Язык : Russian
Default : Да
Forced : Нет
Цветовой диапазон : Limited
Основные цвета : BT.709
Характеристики трансфера : BT.709
Коэффициенты матрицы : BT.709

Аудио #1
Идентификатор : 2
Формат : DTS
Формат/Информация : Digital Theater Systems
Идентификатор кодека : A_DTS
Продолжительность : 2 ч. 19 м.
Вид битрейта : Постоянный
Битрейт : 768 Кбит/сек
Каналы : 6 каналов
ChannelLayout : C L R Ls Rs LFE
Частота : 48,0 КГц
Частота кадров : 93,750 кадра/сек (512 SPF)
Битовая глубина : 16 бит
Метод сжатия : С потерями
Размер потока : 764 Мбайт (9%)
Заголовок : Оригинал
Язык : Russian
Default : Да
Forced : Нет

Аудио #2
Идентификатор : 3
Формат : AC-3
Формат/Информация : Audio Coding 3
Коммерческое название : Dolby Digital
Идентификатор кодека : A_AC3
Продолжительность : 2 ч. 19 м.
Вид битрейта : Постоянный
Битрейт : 640 Кбит/сек
Каналы : 6 каналов
ChannelLayout : L R C LFE Ls Rs
Частота : 48,0 КГц
Частота кадров : 31,250 кадров/сек (1536 SPF)
Битовая глубина : 16 бит
Метод сжатия : С потерями
Размер потока : 637 Мбайт (7%)
Заголовок : Оригинал
Язык : Russian
Default : Нет
Forced : Нет

Текст
Идентификатор : 4
Формат : UTF-8
Идентификатор кодека : S_TEXT/UTF8
Идентификатор кодека/Информация : UTF-8 Plain Text
Продолжительность : 2 ч. 11 м.
Битрейт : 48 бит/сек
ElementCount : 970
Размер потока : 46,3 Кбайт (0%)
Заголовок : Rus Full
Язык : Russian
Default : Нет
Forced : Нет

Меню
00:00:00.000 : :Chapter 01
00:01:17.875 : :Chapter 02
00:12:31.250 : :Chapter 03
00:24:54.041 : :Chapter 04
00:35:06.916 : :Chapter 05
00:49:36.291 : :Chapter 06
01:03:21.041 : :Chapter 07
01:17:58.583 : :Chapter 08
01:30:55.458 : :Chapter 09
01:46:42.666 : :Chapter 10
02:03:33.916 : :Chapter 11
Загрузка...Cкриншот1 Т-34 (2018) BDRip 1080p [HEVC] 10 bit от M@kSIMusЗагрузка...Cкриншот2 Т-34 (2018) BDRip 1080p [HEVC] 10 bit от M@kSIMusЗагрузка...Cкриншот3 Т-34 (2018) BDRip 1080p [HEVC] 10 bit от M@kSIMusЗагрузка...Cкриншот4 Т-34 (2018) BDRip 1080p [HEVC] 10 bit от M@kSIMus
Сэмпл Торрент🧲 Магнет

Рейтинги КП и IMDB, кнопки "Позвать в чате" и "Спасибо", а также мультитрекерная статистика сидов и пиров доступны только зарегистрированным/авторизованным пользователям!

Файлы: 1
  • Т-34 (2018) BDRip 1080p [HEVC] 10 bit.mkv   8.47 ГБ
Поблагодарили: 6
aquarius, crash, D16T, Laska020489, makss333, Papawalun
Admin
048008.47 ГБ

Добавление нового комментария

Добавление комментариев доступно только зарегистрированным/авторизованным пользователям.