💬 Мини-чат

Для тех, кому интересен процесс переделки сайта - https://rips.club/changelog.html (обновлен 22.02.2024)
OldGamerz1M4p9i0, и этот релиз скачался
Adminatomicheart, встал, но у Вас в профиле не видно. Вам бы перекачать.
OldGamerz1M4p9i0, Хан Соло скачался, но релиз, который был на руторе, там аудиодорожек меньше, чем тут, а видеоряд тот же. Попробуйте оттуда, я пока что сидирую.
OldGamerХан Соло откуда-то по чайной ложке в час скачивается, за сутки 50%, наблюдаем-с дальше
Adminatomicheart, завтра посмотрю, он у меня должен быть.
atomicheartРаздайте, пожалуйста, Тихое место: Дилогия / A Quiet Place: Dilogy (2018-2020) UHD-BDRip 1080p [HEVC] 10 bit [HDR] от Mr. Fox
z1M4p9i0Раздайте, пожалуйста, Хан Соло: Звёздные войны. Истории / Solo: A Star Wars Story (2018) [Локализованная версия] BDRip 1080p [HEVC] 10 bit от Cthulhu
z1M4p9i0Раздайте, пожалуйста, Терминатор: Тёмные судьбы / Terminator: Dark Fate (2019) [iTunes] UHD-BDRip 1440p [HEVC] 10 bit от HANNIBAL
OldGamerKeynol, честно говоря, пока что не планировалось, так как у нас есть отличный рип этого фильма
KeynolПриветствую! А можно сделать HEVC 10 bit на Трон Наследие Hybrid ? там файл на 31 гиг :-( на рутрекере. Хороший, но очень массивный..
  • 375509
  • Alex302
  • ilyich05
  • InSpector
  • Святогуб
  • Тренер по Йоге
Отправка сообщений доступна только зарегистрированным/авторизованным пользователям.
Онлайн (за 10 мин.): 6

Шулера / Rounders (1998) BDRip 1080p [HEVC] 10 bit от Cthulhu (RG KORSAR)

HEVC
10 bit
Обложка Шулера / Rounders (1998) BDRip 1080p [HEVC] 10 bit от Cthulhu (RG KORSAR) Год: 1998
Страна: США
Студия: Miramax Films, Spanky Pictures
Жанр: Драма, Криминал
Продолжительность: 02:00:46

Режиссер: Джон Дал
В ролях: Мэтт Дэймон, Эдвард Нортон, Пол Цицеро, Джон Туртурро, Рэй Яничелли, Гретхен Мол, Фамке Янссен, Мервин Голдсмит, Джон Малкович, Мартин Ландау, Сонни Зито, Майкл Рисполи, Мелина Канакаредес, Мэл З. Лоуренс, Джош Мостел

Описание: В подпольных клубах Нью-Йорка идет крупная игра. Здесь свои правила и особые ставки. Тут можно потерять все, но если повезет, обеспечить будущее. Майк обладал потрясающим чутьем и шикарными мозгами. Червь был тертым шулером и крутил колоду, как бог. Он только вышел из тюрьмы, и с него требовали в пятидневный срок отдать старый долг — 15 тысяч долларов. У друзей был только один, слишком рискованный путь: играть в грязную игру!


Видео: 1920x816, 7983 Kbps
Аудио1: AC3, 6 ch, 384 Kbps - РусскийРусский, Многоголосый
Аудио2: AC3, 6 ch, 640 Kbps - РусскийРусский, Одноголосый (Визгунов)
Аудио3: AC3, 6 ch, 448 Kbps - РусскийРусский, Одноголосый (sf@irat)
Аудио4: AC3, 6 ch, 640 Kbps - АнглийскийАнглийский, Оригинал
Субтитры: Русские, английские

Как за пару секунд удалить ненужные аудиодорожки и субтитры (Внимание! После удаления вы не сможете поддержать раздачу)

Медиаинфо
x265 [info]: frame I: 1291, Avg QP:17.58 kb/s: 24876.86
x265 [info]: frame P: 24755, Avg QP:18.89 kb/s: 15032.09
x265 [info]: frame B: 147686, Avg QP:20.97 kb/s: 6652.40
x265 [info]: consecutive B-frames: 6.9% 0.5% 0.9% 4.9% 7.2% 44.1% 7.3% 8.0% 5.7% 3.3% 3.0% 6.0% 1.0% 0.5% 0.3%

General
Unique ID : 53264676348215049206764805093671012778 (0x2812674CCE434A24CDF8E72D20C389AA)
Complete name : H:\HEVC4\Шулера - Rounders (1998) BDRip-HEVC 1080p - KORSAR.mkv
Format : Matroska
Format version : Version 4 / Version 2
File size : 8.52 GiB
Duration : 2 h 0 min
Overall bit rate : 10.1 Mb/s
Movie name : Rounders (1998)_rip_by_Cthulhu
Encoded date : UTC 2020-06-21 18:32:00
Writing application : mkvmerge v46.0.0 ('No Deeper Escape') 64-bit
Writing library : libebml v1.3.10 + libmatroska v1.5.2
Cover : Yes
Attachments : cover7.jpg

Video
ID : 1
Format : HEVC
Format/Info : High Efficiency Video Coding
Format profile : Main 10@L4.1@High
Codec ID : V_MPEGH/ISO/HEVC
Duration : 2 h 0 min
Bit rate : 7 983 kb/s
Width : 1 920 pixels
Height : 816 pixels
Display aspect ratio : 2.35:1
Frame rate mode : Constant
Frame rate : 23.976 (24000/1001) FPS
Color space : YUV
Chroma subsampling : 4:2:0
Bit depth : 10 bits
Bits/(Pixel*Frame) : 0.213
Stream size : 6.73 GiB (79%)
Writing library : x265 3.3+2-gbe2d82093:[Windows][GCC 10.0.1][64 bit] 10bit
Encoding settings : cpuid=1111039 / frame-threads=4 / numa-pools=16 / wpp / no-pmode / no-pme / no-psnr / no-ssim / log-level=2 / input-csp=1 / input-res=1920x816 / interlace=0 / total-frames=173732 / level-idc=41 / high-tier=1 / uhd-bd=0 / ref=5 / no-allow-non-conformance / no-repeat-headers / annexb / no-aud / no-hrd / info / hash=0 / no-temporal-layers / open-gop / min-keyint=24 / keyint=240 / gop-lookahead=0 / bframes=14 / b-adapt=2 / b-pyramid / bframe-bias=0 / rc-lookahead=60 / lookahead-slices=1 / scenecut=40 / hist-scenecut=0 / radl=0 / no-splice / no-intra-refresh / ctu=32 / min-cu-size=8 / rect / amp / max-tu-size=32 / tu-inter-depth=4 / tu-intra-depth=4 / limit-tu=1 / rdoq-level=2 / dynamic-rd=0.00 / no-ssim-rd / signhide / no-tskip / nr-intra=0 / nr-inter=0 / no-constrained-intra / no-strong-intra-smoothing / max-merge=5 / limit-refs=3 / limit-modes / me=3 / subme=7 / merange=57 / temporal-mvp / no-frame-dup / hme / Level / merange / L0,L1,L2=16,32,57 / weightp / weightb / no-analyze-src-pics / deblock=-2:-2 / no-sao / no-sao-non-deblock / rd=6 / selective-sao=0 / no-early-skip / rskip / rskip-edge-threshold=0.050000 / no-fast-intra / no-tskip-fast / no-cu-lossless / b-intra / no-splitrd-skip / rdpenalty=0 / psy-rd=1.70 / psy-rdoq=0.80 / no-rd-refine / no-lossless / cbqpoffs=0 / crqpoffs=0 / rc=crf / crf=20.0 / qcomp=0.66 / qpstep=4 / stats-write=0 / stats-read=0 / vbv-maxrate=50000 / vbv-bufsize=50000 / vbv-init=0.9 / crf-max=0.0 / crf-min=0.0 / ipratio=1.40 / pbratio=1.30 / aq-mode=1 / aq-strength=1.00 / no-cutree / zone-count=0 / no-strict-cbr / qg-size=32 / no-rc-grain / qpmax=69 / qpmin=0 / no-const-vbv / sar=1 / overscan=0 / videoformat=5 / range=0 / colorprim=1 / transfer=1 / colormatrix=1 / chromaloc=0 / display-window=0 / cll=0,0 / min-luma=0 / max-luma=1023 / log2-max-poc-lsb=8 / vui-timing-info / vui-hrd-info / slices=1 / no-opt-qp-pps / no-opt-ref-list-length-pps / no-multi-pass-opt-rps / scenecut-bias=0.05 / hist-threshold=0.01 / no-opt-cu-delta-qp / no-aq-motion / no-hdr10 / no-hdr10-opt / no-dhdr10-opt / no-idr-recovery-sei / analysis-reuse-level=0 / analysis-save-reuse-level=0 / analysis-load-reuse-level=0 / scale-factor=0 / refine-intra=0 / refine-inter=0 / refine-mv=1 / refine-ctu-distortion=0 / no-limit-sao / ctu-info=0 / no-lowpass-dct / refine-analysis-type=0 / copy-pic=1 / max-ausize-factor=1.0 / no-dynamic-refine / no-single-sei / no-hevc-aq / no-svt / no-field / qp-adaptation-range=1.00 / no-scenecut-aware-qpconformance-window-offsets / right=0 / bottom=0
Language : English
Default : Yes
Forced : No
Color range : Limited
Color primaries : BT.709
Transfer characteristics : BT.709
Matrix coefficients : BT.709

Audio #1
ID : 2
Format : AC-3
Format/Info : Audio Coding 3
Commercial name : Dolby Digital
Codec ID : A_AC3
Duration : 2 h 0 min
Bit rate mode : Constant
Bit rate : 384 kb/s
Channel(s) : 6 channels
Channel layout : L R C LFE Ls Rs
Sampling rate : 48.0 kHz
Frame rate : 31.250 FPS (1536 SPF)
Bit depth : 16 bits
Compression mode : Lossy
Stream size : 332 MiB (4%)
Title : MVO
Language : Russian
Service kind : Complete Main
Default : Yes
Forced : No

Audio #2
ID : 3
Format : AC-3
Format/Info : Audio Coding 3
Commercial name : Dolby Digital
Codec ID : A_AC3
Duration : 2 h 0 min
Bit rate mode : Constant
Bit rate : 640 kb/s
Channel(s) : 6 channels
Channel layout : L R C LFE Ls Rs
Sampling rate : 48.0 kHz
Frame rate : 31.250 FPS (1536 SPF)
Bit depth : 16 bits
Compression mode : Lossy
Stream size : 553 MiB (6%)
Title : AVO (Визгунов)
Language : Russian
Service kind : Complete Main
Default : No
Forced : No

Audio #3
ID : 4
Format : AC-3
Format/Info : Audio Coding 3
Commercial name : Dolby Digital
Codec ID : A_AC3
Duration : 2 h 0 min
Bit rate mode : Constant
Bit rate : 448 kb/s
Channel(s) : 6 channels
Channel layout : L R C LFE Ls Rs
Sampling rate : 48.0 kHz
Frame rate : 31.250 FPS (1536 SPF)
Bit depth : 16 bits
Compression mode : Lossy
Stream size : 386 MiB (4%)
Title : VO (sf@irat)
Language : Russian
Service kind : Complete Main
Default : No
Forced : No

Audio #4
ID : 5
Format : AC-3
Format/Info : Audio Coding 3
Commercial name : Dolby Digital
Codec ID : A_AC3
Duration : 2 h 0 min
Bit rate mode : Constant
Bit rate : 640 kb/s
Channel(s) : 6 channels
Channel layout : L R C LFE Ls Rs
Sampling rate : 48.0 kHz
Frame rate : 31.250 FPS (1536 SPF)
Bit depth : 16 bits
Compression mode : Lossy
Stream size : 553 MiB (6%)
Language : English
Service kind : Complete Main
Default : No
Forced : No

Text #1
ID : 6
Format : UTF-8
Codec ID : S_TEXT/UTF8
Codec ID/Info : UTF-8 Plain Text
Duration : 1 h 53 min
Bit rate : 123 b/s
Count of elements : 1538
Stream size : 102 KiB (0%)
Language : Russian
Default : No
Forced : No

Text #2
ID : 7
Format : UTF-8
Codec ID : S_TEXT/UTF8
Codec ID/Info : UTF-8 Plain Text
Duration : 1 h 53 min
Bit rate : 87 b/s
Count of elements : 1690
Stream size : 72.2 KiB (0%)
Language : English
Default : No
Forced : No

Menu
00:00:00.000 : en:A True Grinder
00:10:41.432 : en:Gone Straight
00:18:50.171 : en:Someone Called Worm...
00:24:15.371 : en:Back In The Game
00:31:22.798 : en:Nowhere Near The Cards
00:35:39.429 : en:The Lesson Never Learned
00:41:56.723 : en:Alive For The First Time
00:46:20.778 : en:Our Destiny Chooses Us
00:58:30.924 : en:The Juice Is Running
01:03:10.203 : en:Cut Him Off
01:10:36.732 : en:Then It's Me, Too
01:18:23.782 : en:Playing The Cops
01:24:53.046 : en:Rounding Again
01:35:07.285 : en:I'm Looking For A Game
01:44:50.951 : en:Risking At All
01:51:51.914 : en:Vegas And The World Series
Загрузка...Cкриншот1 Шулера / Rounders (1998) BDRip 1080p [HEVC] 10 bit от Cthulhu (RG KORSAR)Загрузка...Cкриншот2 Шулера / Rounders (1998) BDRip 1080p [HEVC] 10 bit от Cthulhu (RG KORSAR)Загрузка...Cкриншот3 Шулера / Rounders (1998) BDRip 1080p [HEVC] 10 bit от Cthulhu (RG KORSAR)Загрузка...Cкриншот4 Шулера / Rounders (1998) BDRip 1080p [HEVC] 10 bit от Cthulhu (RG KORSAR)
Релиз-группа: KORSAR
Сэмпл Торрент🧲 Магнет

Рейтинги КП и IMDB, кнопки "Позвать в чате" и "Спасибо", а также мультитрекерная статистика доступны только зарегистрированным/авторизованным пользователям!

Файлы: 1
  • Шулера - Rounders (1998) BDRip-HEVC 1080p - KORSAR.mkv   8.52 ГБ
Поблагодарили: 7
and50, grudich, Kilop77, makss333, Nuclear70, sabretooth, torrentzulu
Cthulhu
191008.52 ГБ

Добавление нового комментария

Добавление комментариев доступно только зарегистрированным/авторизованным пользователям.
Аватар не указан
  torrentzulu  
Спасибо за Сфайрата!