Чат

⚫︎
Список изменений сайта - https://rips.club/changelog.html (обновлен 24.05.2024)
  • Kiran
  • Денис
Онлайн (за 10 мин.): 2
Отправка сообщений доступна только зарегистрированным/авторизованным пользователям.

🎥︎Крокодил Данди / Crocodile Dundee (1986) BDRip 1080p [HEVC] 10 bit от OldGamer (RG RIPS CLUB)


Обложка Крокодил Данди / Crocodile Dundee (1986) BDRip 1080p [HEVC] 10 bit от OldGamer (RG RIPS CLUB)
HEVC
10 bit
✂︎Сэмпл⤓︎Торрент🧲︎Магнет$Пожертвования

При перезаливке на другие сайты просьба указать автора и релиз-группу.


Год: 1986
Страна: Австралия
Студия: Rimfire Films, Paramount Pictures
Жанр: Боевик, Комедия, Приключения
Длительность: 01:37:41

Режиссер: Питер Фэймен
В ролях: Пол Хоган, Линда Козловски, Джон Майллон, Дэвид Галпилил, Ричи Сингер, Мэгги Блинко, Дональд Керр, Джерри Скилтон, Терри Гилл, Питер Тернбулл

Описание: Американская журналистка приезжает в глубинку Австралии, и охотник на крокодилов знакомит её с местными достопримечательностями. Она же приглашает его в Нью-Йорк, и там отважный охотник попадает в неведомые ему джунгли...


Релиз-группа: RIPS CLUB
Исходник: Blu-Ray Remux 1080p
Видео: 1920x816, 7262 Kbps
Аудио1: AC3, 2 ch, 256 Kbps - РусскийРусский, DUB (к/с им. Горького)
Аудио2: AC3, 2 ch, 384 Kbps - РусскийРусский, MVO (DDV)
Аудио3: AC3, 2 ch, 192 Kbps - РусскийРусский, MVO (Селена Интернешнл по заказу ОРТ)
Аудио4: AC3, 2 ch, 192 Kbps - РусскийРусский, MVO (НТВ+ по заказу НТВ)
Аудио5: AC3, 2 ch, 192 Kbps - РусскийРусский, MVO (СТС)
Аудио6: AC3, 2 ch, 192 Kbps - РусскийРусский, MVO (ТВЦентр на к/ст Фильмэкспорт)
Аудио7: AC3, 2 ch, 192 Kbps - РусскийРусский, MVO (Paramounth Channel)
Аудио8: AC3, 2 ch, 192 Kbps - РусскийРусский, MVO (ТРК Беларусь 2011 г.)
Аудио9: AC3, 2 ch, 640 Kbps - РусскийРусский, AVO (Андрей Гаврилов)
Аудио10: AC3, 2 ch, 640 Kbps - РусскийРусский, AVO (Юрий Живов)
Аудио11: AC3, 2 ch, 192 Kbps - РусскийРусский, AVO (Леонид Володарский)
Аудио12: AC3, 2 ch, 192 Kbps - РусскийРусский, AVO (Вартан Дохалов)
Аудио13: AC3, 2 ch, 192 Kbps - РусскийРусский, AVO (Андрей Дольский)
Аудио14: AC3, 2 ch, 192 Kbps - РусскийРусский, AVO (Сергей Кузнецов)
Аудио15: AC3, 2 ch, 192 Kbps - РусскийРусский, VO (Андрей - Ray - R7)
Аудио16: AC3, 2 ch, 192 Kbps - РусскийРусский, VO (Неизвестный с VHS)
Аудио17: AC3, 2 ch, 640 Kbps - АнглийскийАнглийский
Субтитры: русские, английские (SDH)

Как за несколько секунд удалить ненужные аудиодорожки и субтитры (Внимание! После удаления вы не сможете поддержать раздачу)


Лог (x265 info)x265 [info]: frame I: 591, Avg QP:17.98 kb/s: 23483.02
x265 [info]: frame P: 23768, Avg QP:19.35 kb/s: 17735.90
x265 [info]: frame B: 116185, Avg QP:21.04 kb/s: 5035.42
x265 [info]: Weighted P-Frames: Y:11.0% UV:8.2%
x265 [info]: Weighted B-Frames: Y:5.6% UV:3.8%
x265 [info]: consecutive B-frames: 0.8% 1.7% 3.6% 24.8% 10.9% 31.7% 6.7% 13.6% 2.7% 2.2% 0.5% 0.4% 0.1% 0.1% 0.1%
x265 [info]: encoded 140544 frames in 110330.68s (1.27 fps), 7260.83 kb/s, Avg QP:20.74
МедиаинфоОбщее
Уникальный идентификатор : 329057239369359216498459808139917990242 (0xF78E1E7B7EBACF8C98A0A103932D1962)
Полное имя : \\.\Крокодил.Данди.Crocodile.Dundee.1986.BDRip-HEVC.1080p.mkv
Формат : Matroska
Версия формата : Version 4
Размер файла : 8,30 Гбайт
Продолжительность : 1 ч. 37 мин.
Общий битрейт : 12,2 Мбит/сек
Частота кадров : 23,976 кадра/сек
Название фильма : Крокодил Данди / Крокодил Данди
Кодирование выполнил : OldGamer
Тип содержимого : Movie
Дата выпуска : 1986-09-26
Дата записи : 1986-09-26
Программа кодирования : mkvmerge v85.0 ('Shame For You') 64-bit
Библиотека кодирования : libebml v1.4.5 + libmatroska v1.7.1 / xvid4psp5
Обложка : Yes
Attachments : cover.jpg
ACTOR : Paul Hogan, Linda Kozlowski, Mark Blum, David Gulpilil, Michael Lombard, John Meillon, Ritchie Singer, Reginald VelJohnson, John Snyder, Rik Colitti, Steve Rackman, Caitlin Clarke, Anne Francine, Irving Metzman, Paul Greco, Maggie Blinco, Gerry Skilt...
ARTIST : Paul Hogan, Linda Kozlowski, Mark Blum, David Gulpilil, Michael Lombard, John Meillon, Ritchie Singer, Reginald VelJohnson, John Snyder, Rik Colitti, Steve Rackman, Caitlin Clarke, Anne Francine, Irving Metzman, Paul Greco, Maggie Blinco, Gerry Skilt...
DIRECTOR : Peter Faiman
GENRE : приключения, комедия
LAW_RATING : PG-13
PRODUCER : John Cornell
PRODUCTION_STUDIO : Rimfire Films
RATING : PG-13
SCREENPLAY_BY : John Cornell, Ken Shadie, Paul Hogan
SYNOPSIS : Американская журналистка приезжает в глубинку Австралии, и охотник на крокодилов знакомит её с местными достопримечательностями. Она же приглашает его в Нью-Йорк, и там отважный охотник попадает в неведомые ему джунгли...
WRITTEN_BY : John Cornell, Ken Shadie, Paul Hogan

Видео
Идентификатор : 1
Формат : HEVC
Формат/Информация : High Efficiency Video Coding
Профиль формата : Main 10@L4.1@High
Идентификатор кодека : V_MPEGH/ISO/HEVC
Продолжительность : 1 ч. 37 мин.
Битрейт : 7 262 Кбит/сек
Ширина : 1 920 пикселей
Высота : 816 пикселей
Соотношение сторон дисплея : 2,35:1
Режим частоты кадров : Постоянный
Частота кадров : 23,976 (24000/1001) кадра/сек
Цветовое пространство : YUV
Цветовая субдискретизация : 4:2:0
Битовая глубина : 10 бит
Бит/(Пиксели*Кадры) : 0.193
Размер потока : 4,96 Гбайт (60%)
Заголовок : Crocodile Dundee / Rip by OldGamer
Библиотека кодирования : x265 3.4+1-7b120308dc64:[Windows][GCC 10.1.0][64 bit] 10bit
Параметры библиотеки кодирования : cpuid=1111039 / frame-threads=3 / numa-pools=8 / wpp / no-pmode / no-pme / no-psnr / no-ssim / log-level=2 / input-csp=1 / input-res=1920x816 / interlace=0 / total-frames=140544 / level-idc=41 / high-tier=1 / uhd-bd=0 / ref=5 / no-allow-non-conformance / no-repeat-headers / annexb / no-aud / no-hrd / info / hash=0 / no-temporal-layers / open-gop / min-keyint=23 / keyint=240 / gop-lookahead=0 / bframes=14 / b-adapt=2 / b-pyramid / bframe-bias=0 / rc-lookahead=60 / lookahead-slices=0 / scenecut=40 / hist-scenecut=0 / radl=0 / no-splice / no-intra-refresh / ctu=64 / min-cu-size=8 / rect / amp / max-tu-size=32 / tu-inter-depth=4 / tu-intra-depth=4 / limit-tu=1 / rdoq-level=2 / dynamic-rd=0.00 / no-ssim-rd / signhide / no-tskip / nr-intra=0 / nr-inter=0 / no-constrained-intra / no-strong-intra-smoothing / max-merge=5 / limit-refs=3 / no-limit-modes / me=3 / subme=7 / merange=57 / temporal-mvp / no-frame-dup / no-hme / weightp / weightb / no-analyze-src-pics / deblock=-3:-3 / no-sao / no-sao-non-deblock / rd=6 / selective-sao=0 / no-early-skip / rskip / no-fast-intra / no-tskip-fast / no-cu-lossless / b-intra / no-splitrd-skip / rdpenalty=0 / psy-rd=2.00 / psy-rdoq=1.00 / no-rd-refine / no-lossless / cbqpoffs=0 / crqpoffs=0 / rc=crf / crf=19.0 / qcomp=0.60 / qpstep=4 / stats-write=0 / stats-read=0 / vbv-maxrate=50000 / vbv-bufsize=50000 / vbv-init=0.9 / crf-max=0.0 / crf-min=0.0 / ipratio=1.40 / pbratio=1.30 / aq-mode=1 / aq-strength=0.80 / no-cutree / zone-count=1 / zones: / start-frame=135446 / end-frame=140526 / qp=36 / no-strict-cbr / qg-size=32 / no-rc-grain / qpmax=69 / qpmin=0 / no-const-vbv / sar=1 / overscan=0 / videoformat=5 / range=0 / colorprim=2 / transfer=2 / colormatrix=2 / chromaloc=0 / display-window=0 / cll=0,0 / min-luma=0 / max-luma=1023 / log2-max-poc-lsb=8 / vui-timing-info / vui-hrd-info / slices=1 / no-opt-qp-pps / no-opt-ref-list-length-pps / no-multi-pass-opt-rps / scenecut-bias=0.00 / hist-threshold=0.01 / no-opt-cu-delta-qp / no-aq-motion / no-hdr10 / no-hdr10-opt / no-dhdr10-opt / no-idr-recovery-sei / analysis-reuse-level=0 / analysis-save-reuse-level=0 / analysis-load-reuse-level=0 / scale-factor=0 / refine-intra=0 / refine-inter=0 / refine-mv=1 / refine-ctu-distortion=0 / no-limit-sao / ctu-info=0 / no-lowpass-dct / refine-analysis-type=0 / copy-pic=1 / max-ausize-factor=1.0 / no-dynamic-refine / no-single-sei / no-hevc-aq / no-svt / no-field / qp-adaptation-range=1.00 / no-scenecut-aware-qpconformance-window-offsets / right=0 / bottom=0 / decoder-max-rate=0
Язык : Английский
По умолчанию : Да
Принудительно : Нет

Аудио #1
Идентификатор : 2
Формат : AC-3
Формат/Информация : Audio Coding 3
Коммерческое название : Dolby Digital
Идентификатор кодека : A_AC3
Продолжительность : 1 ч. 37 мин.
Вид битрейта : Постоянный
Битрейт : 256 Кбит/сек
Канал(-ы) : 2 канала
Расположение каналов : L R
Частота дискретизации : 48,0 КГц
Частота кадров : 31,250 кадров/сек (1536 SPF)
Метод сжатия : С потерями
Размер потока : 179 Мбайт (2%)
Заголовок : DUB (к/с им. Горького)
Язык : Русский
Вид сервиса : Complete Main
По умолчанию : Да
Принудительно : Нет
Нормализация звука речи : -27 dB
compr : -0.28 dB
dynrng : -13.20 dB
dsurmod : Not Dolby Surround encoded
mixlevel : 285 dB
roomtyp : Small
dialnorm_Average : -27 dB
dialnorm_Minimum : -27 dB
dialnorm_Maximum : -27 dB

Аудио #2
Идентификатор : 3
Формат : AC-3
Формат/Информация : Audio Coding 3
Коммерческое название : Dolby Digital
Идентификатор кодека : A_AC3
Продолжительность : 1 ч. 37 мин.
Вид битрейта : Постоянный
Битрейт : 192 Кбит/сек
Канал(-ы) : 2 канала
Расположение каналов : L R
Частота дискретизации : 48,0 КГц
Частота кадров : 31,250 кадров/сек (1536 SPF)
Метод сжатия : С потерями
Размер потока : 134 Мбайт (2%)
Заголовок : MVO (Селена Интернешнл по заказу ОРТ)
Язык : Русский
Вид сервиса : Complete Main
По умолчанию : Нет
Принудительно : Нет
Нормализация звука речи : -31 dB
compr : -0.28 dB
dialnorm_Average : -31 dB
dialnorm_Minimum : -31 dB
dialnorm_Maximum : -31 dB

Аудио #3
Идентификатор : 4
Формат : AC-3
Формат/Информация : Audio Coding 3
Коммерческое название : Dolby Digital
Идентификатор кодека : A_AC3
Продолжительность : 1 ч. 37 мин.
Вид битрейта : Постоянный
Битрейт : 192 Кбит/сек
Канал(-ы) : 2 канала
Расположение каналов : L R
Частота дискретизации : 48,0 КГц
Частота кадров : 31,250 кадров/сек (1536 SPF)
Метод сжатия : С потерями
Размер потока : 134 Мбайт (2%)
Заголовок : MVO (НТВ+ по заказу НТВ)
Язык : Русский
Вид сервиса : Complete Main
По умолчанию : Нет
Принудительно : Нет
Нормализация звука речи : -31 dB
compr : -0.28 dB
dialnorm_Average : -31 dB
dialnorm_Minimum : -31 dB
dialnorm_Maximum : -31 dB

Аудио #4
Идентификатор : 5
Формат : AC-3
Формат/Информация : Audio Coding 3
Коммерческое название : Dolby Digital
Идентификатор кодека : A_AC3
Продолжительность : 1 ч. 37 мин.
Вид битрейта : Постоянный
Битрейт : 192 Кбит/сек
Канал(-ы) : 2 канала
Расположение каналов : L R
Частота дискретизации : 48,0 КГц
Частота кадров : 31,250 кадров/сек (1536 SPF)
Метод сжатия : С потерями
Размер потока : 134 Мбайт (2%)
Заголовок : MVO (СТС)
Язык : Русский
Вид сервиса : Complete Main
По умолчанию : Нет
Принудительно : Нет
Нормализация звука речи : -23 dB
compr : -0.28 dB
mixlevel : 281 dB
roomtyp : 3
ltrtcmixlev : -3.0 dB
ltrtsurmixlev : -3.0 dB
lorocmixlev : -3.0 dB
lorosurmixlev : -3.0 dB
dialnorm_Average : -23 dB
dialnorm_Minimum : -23 dB
dialnorm_Maximum : -23 dB

Аудио #5
Идентификатор : 6
Формат : AC-3
Формат/Информация : Audio Coding 3
Коммерческое название : Dolby Digital
Идентификатор кодека : A_AC3
Продолжительность : 1 ч. 37 мин.
Вид битрейта : Постоянный
Битрейт : 192 Кбит/сек
Канал(-ы) : 2 канала
Расположение каналов : L R
Частота дискретизации : 48,0 КГц
Частота кадров : 31,250 кадров/сек (1536 SPF)
Метод сжатия : С потерями
Размер потока : 134 Мбайт (2%)
Заголовок : MVO (ТВЦентр на к/ст Фильмэкспорт)
Язык : Русский
Вид сервиса : Complete Main
По умолчанию : Нет
Принудительно : Нет
Нормализация звука речи : -27 dB
compr : -0.28 dB
dynrng : -4.30 dB
dsurmod : Not Dolby Surround encoded
mixlevel : 285 dB
roomtyp : Small
dialnorm_Average : -27 dB
dialnorm_Minimum : -27 dB
dialnorm_Maximum : -27 dB

Аудио #6
Идентификатор : 7
Формат : AC-3
Формат/Информация : Audio Coding 3
Коммерческое название : Dolby Digital
Идентификатор кодека : A_AC3
Продолжительность : 1 ч. 37 мин.
Вид битрейта : Постоянный
Битрейт : 192 Кбит/сек
Канал(-ы) : 2 канала
Расположение каналов : L R
Частота дискретизации : 48,0 КГц
Частота кадров : 31,250 кадров/сек (1536 SPF)
Метод сжатия : С потерями
Размер потока : 134 Мбайт (2%)
Заголовок : MVO (Paramounth Channel)
Язык : Русский
Вид сервиса : Complete Main
По умолчанию : Нет
Принудительно : Нет
Нормализация звука речи : -27 dB
compr : -0.28 dB
dialnorm_Average : -27 dB
dialnorm_Minimum : -27 dB
dialnorm_Maximum : -27 dB

Аудио #7
Идентификатор : 8
Формат : AC-3
Формат/Информация : Audio Coding 3
Коммерческое название : Dolby Digital
Идентификатор кодека : A_AC3
Продолжительность : 1 ч. 37 мин.
Вид битрейта : Постоянный
Битрейт : 192 Кбит/сек
Канал(-ы) : 2 канала
Расположение каналов : L R
Частота дискретизации : 48,0 КГц
Частота кадров : 31,250 кадров/сек (1536 SPF)
Метод сжатия : С потерями
Размер потока : 134 Мбайт (2%)
Заголовок : MVO (ТРК Беларусь 2011 г.)
Язык : Русский
Вид сервиса : Complete Main
По умолчанию : Нет
Принудительно : Нет
Нормализация звука речи : -27 dB
compr : -0.28 dB
dialnorm_Average : -27 dB
dialnorm_Minimum : -27 dB
dialnorm_Maximum : -27 dB

Аудио #8
Идентификатор : 9
Формат : AC-3
Формат/Информация : Audio Coding 3
Коммерческое название : Dolby Digital
Идентификатор кодека : A_AC3
Продолжительность : 1 ч. 37 мин.
Вид битрейта : Постоянный
Битрейт : 384 Кбит/сек
Канал(-ы) : 2 канала
Расположение каналов : L R
Частота дискретизации : 48,0 КГц
Частота кадров : 31,250 кадров/сек (1536 SPF)
Метод сжатия : С потерями
Размер потока : 268 Мбайт (3%)
Заголовок : MVO (DDV)
Язык : Русский
Вид сервиса : Complete Main
По умолчанию : Нет
Принудительно : Нет
Нормализация звука речи : -27 dB
compr : -0.28 dB
dialnorm_Average : -27 dB
dialnorm_Minimum : -27 dB
dialnorm_Maximum : -27 dB

Аудио #9
Идентификатор : 10
Формат : AC-3
Формат/Информация : Audio Coding 3
Коммерческое название : Dolby Digital
Идентификатор кодека : A_AC3
Продолжительность : 1 ч. 37 мин.
Вид битрейта : Постоянный
Битрейт : 640 Кбит/сек
Канал(-ы) : 2 канала
Расположение каналов : L R
Частота дискретизации : 48,0 КГц
Частота кадров : 31,250 кадров/сек (1536 SPF)
Метод сжатия : С потерями
Размер потока : 447 Мбайт (5%)
Заголовок : AVO (Андрей Гаврилов)
Язык : Русский
Вид сервиса : Complete Main
По умолчанию : Нет
Принудительно : Нет
Нормализация звука речи : -27 dB
compr : -0.28 dB
dynrng : -8.70 dB
dsurmod : Not Dolby Surround encoded
mixlevel : 285 dB
roomtyp : Small
dialnorm_Average : -27 dB
dialnorm_Minimum : -27 dB
dialnorm_Maximum : -27 dB

Аудио #10
Идентификатор : 11
Формат : AC-3
Формат/Информация : Audio Coding 3
Коммерческое название : Dolby Digital
Идентификатор кодека : A_AC3
Продолжительность : 1 ч. 37 мин.
Вид битрейта : Постоянный
Битрейт : 640 Кбит/сек
Канал(-ы) : 2 канала
Расположение каналов : L R
Частота дискретизации : 48,0 КГц
Частота кадров : 31,250 кадров/сек (1536 SPF)
Метод сжатия : С потерями
Размер потока : 447 Мбайт (5%)
Заголовок : AVO (Юрий Живов)
Язык : Русский
Вид сервиса : Complete Main
По умолчанию : Нет
Принудительно : Нет
Нормализация звука речи : -27 dB
compr : -0.28 dB
dynrng : -8.70 dB
dsurmod : Not Dolby Surround encoded
mixlevel : 285 dB
roomtyp : Small
dialnorm_Average : -27 dB
dialnorm_Minimum : -27 dB
dialnorm_Maximum : -27 dB

Аудио #11
Идентификатор : 12
Формат : AC-3
Формат/Информация : Audio Coding 3
Коммерческое название : Dolby Digital
Идентификатор кодека : A_AC3
Продолжительность : 1 ч. 37 мин.
Вид битрейта : Постоянный
Битрейт : 192 Кбит/сек
Канал(-ы) : 2 канала
Расположение каналов : L R
Частота дискретизации : 48,0 КГц
Частота кадров : 31,250 кадров/сек (1536 SPF)
Метод сжатия : С потерями
Размер потока : 134 Мбайт (2%)
Заголовок : AVO (Леонид Володарский)
Язык : Русский
Вид сервиса : Complete Main
По умолчанию : Нет
Принудительно : Нет
Нормализация звука речи : -27 dB
compr : -0.28 dB
dialnorm_Average : -27 dB
dialnorm_Minimum : -27 dB
dialnorm_Maximum : -27 dB

Аудио #12
Идентификатор : 13
Формат : AC-3
Формат/Информация : Audio Coding 3
Коммерческое название : Dolby Digital
Идентификатор кодека : A_AC3
Продолжительность : 1 ч. 37 мин.
Вид битрейта : Постоянный
Битрейт : 192 Кбит/сек
Канал(-ы) : 2 канала
Расположение каналов : L R
Частота дискретизации : 48,0 КГц
Частота кадров : 31,250 кадров/сек (1536 SPF)
Метод сжатия : С потерями
Размер потока : 134 Мбайт (2%)
Заголовок : AVO (Вартан Дохалов)
Язык : Русский
Вид сервиса : Complete Main
По умолчанию : Нет
Принудительно : Нет
Нормализация звука речи : -31 dB
compr : -0.28 dB
dialnorm_Average : -31 dB
dialnorm_Minimum : -31 dB
dialnorm_Maximum : -31 dB

Аудио #13
Идентификатор : 14
Формат : AC-3
Формат/Информация : Audio Coding 3
Коммерческое название : Dolby Digital
Идентификатор кодека : A_AC3
Продолжительность : 1 ч. 37 мин.
Вид битрейта : Постоянный
Битрейт : 192 Кбит/сек
Канал(-ы) : 2 канала
Расположение каналов : L R
Частота дискретизации : 48,0 КГц
Частота кадров : 31,250 кадров/сек (1536 SPF)
Метод сжатия : С потерями
Размер потока : 134 Мбайт (2%)
Заголовок : AVO (Андрей Дольский)
Язык : Русский
Вид сервиса : Complete Main
По умолчанию : Нет
Принудительно : Нет
Нормализация звука речи : -27 dB
compr : -0.28 dB
dynrng : -19.86 dB
dsurmod : Not Dolby Surround encoded
mixlevel : 285 dB
roomtyp : Small
dialnorm_Average : -27 dB
dialnorm_Minimum : -27 dB
dialnorm_Maximum : -27 dB

Аудио #14
Идентификатор : 15
Формат : AC-3
Формат/Информация : Audio Coding 3
Коммерческое название : Dolby Digital
Идентификатор кодека : A_AC3
Продолжительность : 1 ч. 37 мин.
Вид битрейта : Постоянный
Битрейт : 192 Кбит/сек
Канал(-ы) : 2 канала
Расположение каналов : L R
Частота дискретизации : 48,0 КГц
Частота кадров : 31,250 кадров/сек (1536 SPF)
Метод сжатия : С потерями
Размер потока : 134 Мбайт (2%)
Заголовок : AVO (Сергей Кузнецов)
Язык : Русский
Вид сервиса : Complete Main
По умолчанию : Нет
Принудительно : Нет
Нормализация звука речи : -31 dB
compr : -0.28 dB
dialnorm_Average : -31 dB
dialnorm_Minimum : -31 dB
dialnorm_Maximum : -31 dB

Аудио #15
Идентификатор : 16
Формат : AC-3
Формат/Информация : Audio Coding 3
Коммерческое название : Dolby Digital
Настройки формата : Dolby Surround
Идентификатор кодека : A_AC3
Продолжительность : 1 ч. 37 мин.
Вид битрейта : Постоянный
Битрейт : 192 Кбит/сек
Канал(-ы) : 2 канала
Расположение каналов : L R
Частота дискретизации : 48,0 КГц
Частота кадров : 31,250 кадров/сек (1536 SPF)
Метод сжатия : С потерями
Размер потока : 134 Мбайт (2%)
Заголовок : VO (Андрей - Ray - R7)
Язык : Русский
Вид сервиса : Complete Main
По умолчанию : Нет
Принудительно : Нет
Нормализация звука речи : -27 dB
compr : -0.28 dB
dsurmod : Dolby Surround encoded
mixlevel : 283 dB
roomtyp : 3
ltrtcmixlev : -3.0 dB
ltrtsurmixlev : -3.0 dB
lorocmixlev : -3.0 dB
lorosurmixlev : -3.0 dB
dialnorm_Average : -27 dB
dialnorm_Minimum : -27 dB
dialnorm_Maximum : -27 dB

Аудио #16
Идентификатор : 17
Формат : AC-3
Формат/Информация : Audio Coding 3
Коммерческое название : Dolby Digital
Идентификатор кодека : A_AC3
Продолжительность : 1 ч. 37 мин.
Вид битрейта : Постоянный
Битрейт : 192 Кбит/сек
Канал(-ы) : 2 канала
Расположение каналов : L R
Частота дискретизации : 48,0 КГц
Частота кадров : 31,250 кадров/сек (1536 SPF)
Метод сжатия : С потерями
Размер потока : 134 Мбайт (2%)
Заголовок : VO (Неизвестный с VHS)
Язык : Русский
Вид сервиса : Complete Main
По умолчанию : Нет
Принудительно : Нет
Нормализация звука речи : -27 dB
compr : -0.28 dB
dialnorm_Average : -27 dB
dialnorm_Minimum : -27 dB
dialnorm_Maximum : -27 dB

Аудио #17
Идентификатор : 18
Формат : AC-3
Формат/Информация : Audio Coding 3
Коммерческое название : Dolby Digital
Идентификатор кодека : A_AC3
Продолжительность : 1 ч. 37 мин.
Вид битрейта : Постоянный
Битрейт : 640 Кбит/сек
Канал(-ы) : 2 канала
Расположение каналов : L R
Частота дискретизации : 48,0 КГц
Частота кадров : 31,250 кадров/сек (1536 SPF)
Метод сжатия : С потерями
Размер потока : 447 Мбайт (5%)
Язык : Английский
Вид сервиса : Complete Main
По умолчанию : Нет
Принудительно : Нет
Нормализация звука речи : -27 dB
compr : -0.28 dB
dynrng : -8.70 dB
dsurmod : Not Dolby Surround encoded
mixlevel : 285 dB
roomtyp : Small
dialnorm_Average : -27 dB
dialnorm_Minimum : -27 dB
dialnorm_Maximum : -27 dB

Текст #1
Идентификатор : 19
Формат : UTF-8
Идентификатор кодека : S_TEXT/UTF8
Идентификатор кодека/Информация : UTF-8 Plain Text
Продолжительность : 1 ч. 32 мин.
Битрейт : 69 бит/сек
Частота кадров : 0,198 кадр/сек
Число элементов : 1103
Размер потока : 46,9 КиБ (0%)
Заголовок : Russian
Язык : Русский
По умолчанию : Нет
Принудительно : Нет

Текст #2
Идентификатор : 20
Формат : UTF-8
Идентификатор кодека : S_TEXT/UTF8
Идентификатор кодека/Информация : UTF-8 Plain Text
Продолжительность : 1 ч. 32 мин.
Битрейт : 66 бит/сек
Частота кадров : 0,170 кадр/сек
Число элементов : 948
Размер потока : 45,2 КиБ (0%)
Заголовок : Russian Ren-TV
Язык : Русский
По умолчанию : Нет
Принудительно : Нет

Текст #3
Идентификатор : 21
Формат : UTF-8
Идентификатор кодека : S_TEXT/UTF8
Идентификатор кодека/Информация : UTF-8 Plain Text
Продолжительность : 1 ч. 32 мин.
Битрейт : 42 бит/сек
Частота кадров : 0,175 кадр/сек
Число элементов : 974
Размер потока : 28,9 КиБ (0%)
Заголовок : English Full
Язык : Английский
По умолчанию : Нет
Принудительно : Нет

Текст #4
Идентификатор : 22
Формат : UTF-8
Идентификатор кодека : S_TEXT/UTF8
Идентификатор кодека/Информация : UTF-8 Plain Text
Продолжительность : 1 ч. 33 мин.
Битрейт : 46 бит/сек
Частота кадров : 0,210 кадр/сек
Число элементов : 1173
Размер потока : 31,9 КиБ (0%)
Заголовок : English SDH
Язык : Английский
По умолчанию : Нет
Принудительно : Нет

Меню
00:00:00.000 : en:Opening Credits
00:07:18.604 : en:A Crocodile Legend
00:13:53.582 : en:Mind Over Matter
00:20:16.131 : en:Stick Close to Me
00:29:51.956 : en:Bathing With a Crocodile
00:33:00.770 : en:A Mate of Mine
00:40:05.444 : en:Broadening Horizons
00:50:57.471 : en:Sightseeing
00:53:27.746 : en:A Civilized Meal
00:57:39.497 : en:Off Duty
01:04:50.636 : en:Wash Day
01:11:16.230 : en:Cure for the Common Cold
01:14:12.531 : en:That's a Knife
01:23:52.652 : en:A New York "Walkabout"
01:31:08.796 : en:Subway Communication
01:34:10.311 : en:End Credits
Загрузка...Cкриншот1 Крокодил Данди / Crocodile Dundee (1986) BDRip 1080p [HEVC] 10 bit от OldGamer (RG RIPS CLUB)Загрузка...Cкриншот2 Крокодил Данди / Crocodile Dundee (1986) BDRip 1080p [HEVC] 10 bit от OldGamer (RG RIPS CLUB)Загрузка...Cкриншот3 Крокодил Данди / Crocodile Dundee (1986) BDRip 1080p [HEVC] 10 bit от OldGamer (RG RIPS CLUB)Загрузка...Cкриншот4 Крокодил Данди / Crocodile Dundee (1986) BDRip 1080p [HEVC] 10 bit от OldGamer (RG RIPS CLUB)
История обновленийВидеоряд без изменений. Добавлены переводы: ТВЦентр, Paramounth Channel, ТРК Беларусь, Андрей Гаврилов, Леонид Володарский, Андрей Дольский, неизвестный с VHS. Добавлены субтитры.
Поблагодарили: 17A1eksandr1, AlexsBond, and50, AndresUA, animen67, Askarida666, Cthulhu, D16T, diesel0000, Giggalo, han-nik, Kiran, makss333, Niflung, Oblak, vint000, Winsent
Файлы: 1
  • Крокодил.Данди.Crocodile.Dundee.1986.BDRip-HEVC.1080p.mkv

Рейтинги КП и IMDB, кнопки "Раздайте, пожалуйста" и "Спасибо", а также мультитрекерная статистика доступны только зарегистрированным/авторизованным пользователям!

OldGamer
14118408.28 ГБ

💬︎ Комментарии

Добавление комментариев доступно только зарегистрированным/авторизованным пользователям.