Чат

⚫︎
Список изменений сайта - https://rips.club/changelog.html (обновлен 24.05.2024)
  • arwis
  • justmkr
Онлайн (за 10 мин.): 2
Отправка сообщений доступна только зарегистрированным/авторизованным пользователям.

🎥︎Диктатор / The Dictator (2012) [Tеатральная версия] BDRip 1080p [HEVC] 10 bit от -Star-Lord-


Обложка Диктатор / The Dictator (2012) [Tеатральная версия] BDRip 1080p [HEVC] 10 bit от -Star-Lord-
HEVC
10 bit
✂︎Сэмпл⤓︎Торрент🧲︎Магнет$Пожертвования
Год: 2012
Страна: США
Студия: Paramount Pictures, Four by Two Films
Жанр: Комедия
Длительность: 01:23:16

Режиссер: Ларри Чарльз
В ролях: Саша Барон Коэн, Анна Фэрис, Бен Кингсли, Джейсон Манцукас, Бобби Ли, Кевин Корригэн, Кэтрин Хан, Сет Моррис, Адиль Ахтар, Джон Си Райли

Описание: Героическая история диктатора, который рискует своей жизнью, чтобы ни в коем случае не допустить демократию в свою столь любовно угнетаемую страну.


Видео: 1920x800, 3623 Kbps
Аудио1: AC3, 6 ch, 640 Kbps - РусскийРусский, Дублированный (Blu-Ray)
Аудио2: AC3, 6 ch, 448 Kbps - УкраинскийУкраинский, Дублированный (DVD)
Аудио3: DTS, 6 ch, 1509 Kbps - АнглийскийАнглийский, Оригинал
Субтитры: русские, украинские, английские

Как за несколько секунд удалить ненужные аудиодорожки и субтитры (Внимание! После удаления вы не сможете поддержать раздачу)


МедиаинфоGeneral
Unique ID : 79841120583549312425104361073787618219 (0x3C10D72A84B47776FDF91126D08143AB)
Complete name : The Dictator (2012) BDRip 1080p H.265 [RUS_UKR_ENG] [HEVC-CLUB].mkv
Format : Matroska
Format version : Version 4
File size : 3.62 GiB
Duration : 1 h 23 min
Overall bit rate : 6 222 kb/s
Movie name : Диктатор / The Dictator (2012)
Encoded date : UTC 2020-03-12 21:33:08
Writing application : mkvmerge v20.0.0 ('I Am The Sun') 64-bit
Writing library : libebml v1.3.5 + libmatroska v1.4.8
Cover : Yes
Attachments : Cover.jpg

Video
ID : 1
Format : HEVC
Format/Info : High Efficiency Video Coding
Format profile : Main 10@L5.1@High
Codec ID : V_MPEGH/ISO/HEVC
Duration : 1 h 23 min
Bit rate : 3 623 kb/s
Width : 1 920 pixels
Height : 800 pixels
Display aspect ratio : 2.40:1
Frame rate mode : Constant
Frame rate : 23.976 (24000/1001) FPS
Color space : YUV
Chroma subsampling : 4:2:0
Bit depth : 10 bits
Bits/(Pixel*Frame) : 0.098
Stream size : 2.11 GiB (58%)
Title : Диктатор / The Dictator (2012)
Writing library : x265 3.2+5-354901970679:[Windows][clang 8.0.1][64 bit] 10bit
Encoding settings : cpuid=1111039 / frame-threads=9 / numa-pools=8 / wpp / no-pmode / no-pme / no-psnr / no-ssim / log-level=3 / input-csp=1 / input-res=1920x800 / interlace=0 / total-frames=0 / level-idc=51 / high-tier=1 / uhd-bd=0 / ref=5 / allow-non-conformance / no-repeat-headers / annexb / no-aud / no-hrd / info / hash=0 / no-temporal-layers / open-gop / min-keyint=24 / keyint=240 / gop-lookahead=0 / bframes=8 / b-adapt=2 / b-pyramid / bframe-bias=0 / rc-lookahead=40 / lookahead-slices=5 / scenecut=40 / radl=0 / no-splice / no-intra-refresh / ctu=64 / min-cu-size=8 / rect / amp / max-tu-size=32 / tu-inter-depth=4 / tu-intra-depth=4 / limit-tu=0 / rdoq-level=2 / dynamic-rd=0.00 / no-ssim-rd / signhide / no-tskip / nr-intra=0 / nr-inter=0 / no-constrained-intra / no-strong-intra-smoothing / max-merge=3 / limit-refs=1 / no-limit-modes / me=3 / subme=7 / merange=57 / temporal-mvp / no-frame-dup / no-hme / weightp / weightb / no-analyze-src-pics / deblock=-3:-3 / no-sao / no-sao-non-deblock / rd=6 / selective-sao=0 / early-skip / rskip / no-fast-intra / no-tskip-fast / no-cu-lossless / b-intra / no-splitrd-skip / rdpenalty=0 / psy-rd=2.00 / psy-rdoq=1.00 / no-rd-refine / no-lossless / cbqpoffs=0 / crqpoffs=0 / rc=crf / crf=18.0 / qcomp=0.65 / qpstep=4 / stats-write=0 / stats-read=0 / vbv-maxrate=50000 / vbv-bufsize=50000 / vbv-init=0.9 / crf-max=30.0 / crf-min=0.0 / ipratio=1.40 / pbratio=1.30 / aq-mode=1 / aq-strength=1.00 / cutree / zone-count=0 / no-strict-cbr / qg-size=32 / no-rc-grain / qpmax=69 / qpmin=0 / no-const-vbv / sar=1 / overscan=0 / videoformat=5 / range=0 / colorprim=2 / transfer=2 / colormatrix=2 / chromaloc=0 / display-window=0 / cll=0,0 / min-luma=0 / max-luma=1023 / log2-max-poc-lsb=8 / vui-timing-info / vui-hrd-info / slices=1 / no-opt-qp-pps / no-opt-ref-list-length-pps / no-multi-pass-opt-rps / scenecut-bias=0.05 / no-opt-cu-delta-qp / no-aq-motion / no-hdr / no-hdr-opt / no-dhdr10-opt / no-idr-recovery-sei / analysis-reuse-level=5 / scale-factor=0 / refine-intra=0 / refine-inter=0 / refine-mv=1 / refine-ctu-distortion=0 / no-limit-sao / ctu-info=0 / no-lowpass-dct / refine-analysis-type=0 / copy-pic=1 / max-ausize-factor=1.0 / no-dynamic-refine / no-single-sei / no-hevc-aq / no-svt / no-field / qp-adaptation-range=1.00
Default : Yes
Forced : No
Color range : Limited

Audio #1
ID : 2
Format : AC-3
Format/Info : Audio Coding 3
Commercial name : Dolby Digital
Codec ID : A_AC3
Duration : 1 h 23 min
Bit rate mode : Constant
Bit rate : 640 kb/s
Channel(s) : 6 channels
Channel layout : L R C LFE Ls Rs
Sampling rate : 48.0 kHz
Frame rate : 31.250 FPS (1536 SPF)
Bit depth : 16 bits
Compression mode : Lossy
Stream size : 381 MiB (10%)
Title : AC3 / 5.1 Ch / 640 kbps / DUB / Blu-Ray
Language : Russian
Service kind : Complete Main
Default : Yes
Forced : Yes

Audio #2
ID : 3
Format : AC-3
Format/Info : Audio Coding 3
Commercial name : Dolby Digital
Codec ID : A_AC3
Duration : 1 h 23 min
Bit rate mode : Constant
Bit rate : 448 kb/s
Channel(s) : 6 channels
Channel layout : L R C LFE Ls Rs
Sampling rate : 48.0 kHz
Frame rate : 31.250 FPS (1536 SPF)
Bit depth : 16 bits
Compression mode : Lossy
Stream size : 267 MiB (7%)
Title : AC3 / 5.1 Ch / 448 kbps / DUB / DVD
Language : Ukrainian
Service kind : Complete Main
Default : No
Forced : No

Audio #3
ID : 4
Format : DTS
Format/Info : Digital Theater Systems
Codec ID : A_DTS
Duration : 1 h 23 min
Bit rate mode : Constant
Bit rate : 1 509 kb/s
Channel(s) : 6 channels
Channel layout : C L R Ls Rs LFE
Sampling rate : 48.0 kHz
Frame rate : 93.750 FPS (512 SPF)
Bit depth : 24 bits
Compression mode : Lossy
Stream size : 899 MiB (24%)
Title : DTS / 5.1 Ch / 1509 kbps / Original
Language : English
Default : No
Forced : No

Text #1
ID : 5
Format : UTF-8
Codec ID : S_TEXT/UTF8
Codec ID/Info : UTF-8 Plain Text
Duration : 1 h 16 min
Bit rate : 127 b/s
Count of elements : 1159
Stream size : 71.3 KiB (0%)
Title : Full
Language : Russian
Default : Yes
Forced : No

Text #2
ID : 6
Format : UTF-8
Codec ID : S_TEXT/UTF8
Codec ID/Info : UTF-8 Plain Text
Duration : 1 h 16 min
Bit rate : 128 b/s
Count of elements : 1349
Stream size : 71.9 KiB (0%)
Title : Full
Language : Ukrainian
Default : No
Forced : No

Text #3
ID : 7
Format : UTF-8
Codec ID : S_TEXT/UTF8
Codec ID/Info : UTF-8 Plain Text
Duration : 1 h 15 min
Bit rate : 83 b/s
Count of elements : 1321
Stream size : 46.3 KiB (0%)
Title : Full
Language : English
Default : No
Forced : No

Menu
00:00:00.000 : :Chapter 1
00:07:11.638 : :Chapter 2
00:11:14.214 : :Chapter 3
00:16:48.465 : :Chapter 4
00:21:18.902 : :Chapter 5
00:26:36.927 : :Chapter 6
00:32:15.056 : :Chapter 7
00:38:15.751 : :Chapter 8
00:42:37.387 : :Chapter 9
00:48:46.464 : :Chapter 10
00:55:37.792 : :Chapter 11
01:01:48.704 : :Chapter 12
01:06:46.460 : :Chapter 13
01:13:32.240 : :Chapter 14
01:23:17.742 : :Chapter 15
Загрузка...Cкриншот1 Диктатор / The Dictator (2012) [Tеатральная версия] BDRip 1080p [HEVC] 10 bit от -Star-Lord-Загрузка...Cкриншот2 Диктатор / The Dictator (2012) [Tеатральная версия] BDRip 1080p [HEVC] 10 bit от -Star-Lord-Загрузка...Cкриншот3 Диктатор / The Dictator (2012) [Tеатральная версия] BDRip 1080p [HEVC] 10 bit от -Star-Lord-Загрузка...Cкриншот4 Диктатор / The Dictator (2012) [Tеатральная версия] BDRip 1080p [HEVC] 10 bit от -Star-Lord-
Поблагодарили: 2makss333, MIGRANT
Файлы: 1
  • The Dictator (2012) BDRip 1080p H.265 [RUS_UKR_ENG] [HEVC-CLUB].mkv

Рейтинги КП и IMDB, кнопки "Раздайте, пожалуйста" и "Спасибо", а также мультитрекерная статистика доступны только зарегистрированным/авторизованным пользователям!

StarLord
0322303.62 ГБ

💬︎ Комментарии

Добавление комментариев доступно только зарегистрированным/авторизованным пользователям.