Регистрация / Смена пароля

💬 Мини-чат

Адрес сайта поменялся с hevc-club.video на rips.club. Новый адрес анонсера - http://rips.club:2710/announce
ADVOKAT69rodina_45, буду перекодировать!
rodina_45Раздайте, пожалуйста, Царевна-лягушка (1954) BDRip 1080p [HEVC] 10 bit от ADVOKAT69
OldGamerДа всегда пожалуйста
UndervestСообщение удалено (удалил: Undervest)
StarLordOldGamer, очень жаль... Возможно сам возьмусь)
OldGamerStarLord, в планах такого нету :)
StarLordOldGamer, еще бы "Бомжа с дробовиком" в придачу к "Мачете" =))
warner98Раздайте, пожалуйста, Кошмар на улице Вязов / A Nightmare on Elm Street (2010) BDRip 1080p [HEVC] 10 bit от Cthulhu
VISРаздайте, пожалуйста, Доспехи Бога / Lung hing foo dai (1986) BDRip 1080p [HEVC] 10 bit от joker63
  • Admin
  • AlexTwitt
  • ancestor87
  • and50
  • makss333
  • porsche_carrera
  • sabretooth
Отправка сообщений доступна только зарегистрированным/авторизованным пользователям.
Онлайн (за 10 мин.): 7

Гарри Поттер и философский камень / Harry Potter and the Sorcerer's Stone (2001) [Theatrical Cut] BDRip 1080p [HEVC] 10 bit от -Star-Lord-

HEVC
10 bit
Обложка Гарри Поттер и философский камень / Harry Potter and the Sorcerer's Stone (2001) [Theatrical Cut] BDRip 1080p [HEVC] 10 bit от -Star-Lord- Год: 2001
Страна: Великобритания, США
Студия: Warner Bros. Pictures, Heyday Films, 1492 Pictures
Жанр: Фэнтези, Приключения, Семейный
Продолжительность: 02:32:21

Режиссер: Крис Коламбус / Chris Columbus
В ролях: Дэниел Рэдклифф, Эмма Уотсон, Руперт Гринт, Ричард Харрис, Алан Рикман, Мэгги Смит, Робби Колтрейн, Саундерс Триплетс, Фиона Шоу, Гарри Меллинг, Ричард Гриффитс, Дерек Дэмэн, Ян Харт

Описание: Жизнь десятилетнего Гарри Поттера нельзя назвать сладкой: его родители умерли, едва ему исполнился год, а от дяди и тётки, взявших сироту на воспитание, достаются лишь тычки да подзатыльники. Но в одиннадцатый день рождения Гарри всё меняется. Странный гость, неожиданно появившийся на пороге, приносит письмо, из которого мальчик узнаёт, что на самом деле он чистокровный волшебник и принят в Хогвартс — школу магии. А уже через пару недель Гарри будет мчаться в поезде Хогвартс-экспресс навстречу новой жизни, где его ждут невероятные приключения, верные друзья и самое главное — ключ к разгадке тайны смерти его родителей.


Видео: 1920x796, 8782 Kbps
Аудио1: AC3, 6 ch, 384 Kbps - РусскийРусский, Дублированный (Лицензия)
Аудио2: AC3, 2 ch, 192 Kbps - УкраинскийУкраинский, Дублированный (Sweet.tv)
Аудио3: AC3, 2 ch, 192 Kbps - УкраинскийУкраинский, Многоголосый (Novy Kanal)
Аудио4: AC3, 2 ch, 192 Kbps - УкраинскийУкраинский, Многоголосый (1+1)
Аудио5: TrueHD , 6 ch, 1555 Kbps - АнглийскийАнглийский, Оригинал
Субтитры: Русские (форсированные, полные), украинские (форсированные x2, полные x2), английские (полные x2)

Как за пару секунд удалить ненужные аудиодорожки и субтитры (Внимание! После удаления вы не сможете поддержать раздачу)

Лог (x265 info)
x265 info: frame I: 2160, Avg QP:17.55 kb/s: 20737.21
x265 info: frame P: 39394, Avg QP:18.56 kb/s: 14238.43
x265 info: frame B: 177626, Avg QP:20.44 kb/s: 7425.97
x265 info: Weighted P-Frames: Y:19.2% UV:14.6%
x265 info: Weighted B-Frames: Y:25.6% UV:17.5%
x265 info: consecutive B-frames: 8.8% 5.4% 7.0% 13.1% 17.2% 29.4% 6.0% 5.3% 2.0% 2.0% 1.1% 1.1% 0.2% 0.5% 0.1% 0.5% 0.3%
Медиаинфо
General
Unique ID : 83057255798535733062165083644538654747 (0x3E7C3EDFE9164C249D5623FA984C101B)
Complete name : Harry Potter and the Sorcerer's Stone (2001) BDRip 1080p [RUS_3xUKR_ENG] [HEVC-CLUB].mkv
Format : Matroska
Format version : Version 4
File size : 12.1 GiB
Duration : 2 h 32 min
Overall bit rate mode : Variable
Overall bit rate : 11.4 Mb/s
Movie name : Гарри Поттер и философский камень / Гаррі Поттер і Філософський Камінь / Harry Potter and the Sorcerer's Stone (2001)
Encoded date : UTC 2020-10-11 20:08:49
Writing application : mkvmerge v20.0.0 ('I Am The Sun') 64-bit
Writing library : libebml v1.3.5 + libmatroska v1.4.8
Cover : Yes
Attachments : cover / LumosCyr_0.ttf / HarryPotterCyr_0.ttf

Video
ID : 1
Format : HEVC
Format/Info : High Efficiency Video Coding
Format profile : Main 10@L5.1@High
Codec ID : V_MPEGH/ISO/HEVC
Duration : 2 h 32 min
Bit rate : 8 782 kb/s
Width : 1 920 pixels
Height : 796 pixels
Display aspect ratio : 2.40:1
Frame rate mode : Constant
Frame rate : 23.976 (24000/1001) FPS
Color space : YUV
Chroma subsampling : 4:2:0
Bit depth : 10 bits
Bits/(Pixel*Frame) : 0.240
Stream size : 9.35 GiB (77%)
Title : Гарри Поттер и философский камень / Гаррі Поттер і Філософський Камінь / Harry Potter and the Sorcerer's Stone (2001)
Writing library : x265 3.2+5-354901970679:[Windows][clang 8.0.1][64 bit] 10bit
Encoding settings : cpuid=1111039 / frame-threads=13 / numa-pools=12 / wpp / no-pmode / no-pme / no-psnr / no-ssim / log-level=3 / input-csp=1 / input-res=1920x796 / interlace=0 / total-frames=0 / level-idc=51 / high-tier=1 / uhd-bd=0 / ref=5 / allow-non-conformance / no-repeat-headers / annexb / no-aud / no-hrd / info / hash=0 / no-temporal-layers / open-gop / min-keyint=24 / keyint=240 / gop-lookahead=0 / bframes=16 / b-adapt=2 / b-pyramid / bframe-bias=0 / rc-lookahead=60 / lookahead-slices=5 / scenecut=40 / radl=0 / no-splice / no-intra-refresh / ctu=64 / min-cu-size=8 / rect / amp / max-tu-size=32 / tu-inter-depth=4 / tu-intra-depth=4 / limit-tu=0 / rdoq-level=2 / dynamic-rd=0.00 / no-ssim-rd / signhide / no-tskip / nr-intra=0 / nr-inter=0 / no-constrained-intra / no-strong-intra-smoothing / max-merge=3 / limit-refs=1 / no-limit-modes / me=3 / subme=7 / merange=57 / temporal-mvp / no-frame-dup / no-hme / weightp / weightb / no-analyze-src-pics / deblock=-3:-3 / no-sao / no-sao-non-deblock / rd=6 / selective-sao=0 / early-skip / rskip / no-fast-intra / no-tskip-fast / no-cu-lossless / b-intra / no-splitrd-skip / rdpenalty=0 / psy-rd=2.00 / psy-rdoq=1.00 / no-rd-refine / no-lossless / cbqpoffs=0 / crqpoffs=0 / rc=crf / crf=20.0 / qcomp=0.65 / qpstep=4 / stats-write=0 / stats-read=0 / vbv-maxrate=50000 / vbv-bufsize=50000 / vbv-init=0.9 / crf-max=30.0 / crf-min=0.0 / ipratio=1.40 / pbratio=1.30 / aq-mode=1 / aq-strength=1.00 / no-cutree / zone-count=0 / no-strict-cbr / qg-size=32 / no-rc-grain / qpmax=69 / qpmin=0 / no-const-vbv / sar=1 / overscan=0 / videoformat=5 / range=0 / colorprim=1 / transfer=1 / colormatrix=1 / chromaloc=0 / display-window=0 / cll=0,0 / min-luma=0 / max-luma=1023 / log2-max-poc-lsb=8 / vui-timing-info / vui-hrd-info / slices=1 / no-opt-qp-pps / no-opt-ref-list-length-pps / no-multi-pass-opt-rps / scenecut-bias=0.05 / no-opt-cu-delta-qp / no-aq-motion / no-hdr / no-hdr-opt / no-dhdr10-opt / no-idr-recovery-sei / analysis-reuse-level=5 / scale-factor=0 / refine-intra=0 / refine-inter=0 / refine-mv=1 / refine-ctu-distortion=0 / no-limit-sao / ctu-info=0 / no-lowpass-dct / refine-analysis-type=0 / copy-pic=1 / max-ausize-factor=1.0 / no-dynamic-refine / no-single-sei / no-hevc-aq / no-svt / no-field / qp-adaptation-range=1.00
Default : Yes
Forced : No
Color range : Limited
Color primaries : BT.709
Transfer characteristics : BT.709
Matrix coefficients : BT.709

Audio #1
ID : 2
Format : AC-3
Format/Info : Audio Coding 3
Commercial name : Dolby Digital
Codec ID : A_AC3
Duration : 2 h 32 min
Bit rate mode : Constant
Bit rate : 384 kb/s
Channel(s) : 6 channels
Channel layout : L R C LFE Ls Rs
Sampling rate : 48.0 kHz
Frame rate : 31.250 FPS (1536 SPF)
Compression mode : Lossy
Stream size : 418 MiB (3%)
Title : AC3 / 5.1 Ch / 384 kbps / DUB / Blu-Ray
Language : Russian
Service kind : Complete Main
Default : Yes
Forced : Yes

Audio #2
ID : 3
Format : AC-3
Format/Info : Audio Coding 3
Commercial name : Dolby Digital
Codec ID : A_AC3
Duration : 2 h 32 min
Bit rate mode : Constant
Bit rate : 192 kb/s
Channel(s) : 2 channels
Channel layout : L R
Sampling rate : 48.0 kHz
Frame rate : 31.250 FPS (1536 SPF)
Compression mode : Lossy
Stream size : 209 MiB (2%)
Title : AC3 / 2.0 Ch / 192 kbps / DUB / Sweet.tv
Language : Ukrainian
Service kind : Complete Main
Default : No
Forced : No

Audio #3
ID : 4
Format : AC-3
Format/Info : Audio Coding 3
Commercial name : Dolby Digital
Codec ID : A_AC3
Duration : 2 h 32 min
Bit rate mode : Constant
Bit rate : 192 kb/s
Channel(s) : 2 channels
Channel layout : L R
Sampling rate : 48.0 kHz
Frame rate : 31.250 FPS (1536 SPF)
Compression mode : Lossy
Stream size : 209 MiB (2%)
Title : AC3 / 2.0 Ch / 192 kbps / MVO / Novy Kanal
Language : Ukrainian
Service kind : Complete Main
Default : No
Forced : No

Audio #4
ID : 5
Format : AC-3
Format/Info : Audio Coding 3
Commercial name : Dolby Digital
Codec ID : A_AC3
Duration : 2 h 32 min
Bit rate mode : Constant
Bit rate : 192 kb/s
Channel(s) : 2 channels
Channel layout : L R
Sampling rate : 48.0 kHz
Frame rate : 31.250 FPS (1536 SPF)
Compression mode : Lossy
Stream size : 209 MiB (2%)
Title : AC3 / 2.0 Ch / 192 kbps / MVO / 1+1
Language : Ukrainian
Service kind : Complete Main
Default : No
Forced : No

Audio #5
ID : 6
Format : MLP FBA
Format/Info : Meridian Lossless Packing FBA
Commercial name : Dolby TrueHD
Codec ID : A_TRUEHD
Duration : 2 h 32 min
Bit rate mode : Variable
Bit rate : 1 555 kb/s
Maximum bit rate : 3 729 kb/s
Channel(s) : 6 channels
Channel layout : L R C LFE Ls Rs
Sampling rate : 48.0 kHz
Frame rate : 1 200.000 FPS (40 SPF)
Compression mode : Lossless
Stream size : 1.66 GiB (14%)
Title : TrueHD / 5.1 Ch / 1555 kbps / Original
Language : English
Default : No
Forced : No

Text #1
ID : 7
Format : UTF-8
Codec ID : S_TEXT/UTF8
Codec ID/Info : UTF-8 Plain Text
Duration : 1 h 28 min
Bit rate : 1 b/s
Count of elements : 21
Stream size : 893 Bytes (0%)
Title : Forced
Language : Russian
Default : Yes
Forced : Yes

Text #2
ID : 8
Format : UTF-8
Codec ID : S_TEXT/UTF8
Codec ID/Info : UTF-8 Plain Text
Duration : 2 h 23 min
Bit rate : 76 b/s
Count of elements : 1241
Stream size : 79.9 KiB (0%)
Title : Full
Language : Russian
Default : No
Forced : No

Text #3
ID : 9
Format : UTF-8
Codec ID : S_TEXT/UTF8
Codec ID/Info : UTF-8 Plain Text
Duration : 1 h 28 min
Bit rate : 1 b/s
Count of elements : 20
Stream size : 842 Bytes (0%)
Title : Forced
Language : Ukrainian
Default : No
Forced : No

Text #4
ID : 10
Format : ASS
Codec ID : S_TEXT/ASS
Codec ID/Info : Advanced Sub Station Alpha
Duration : 1 h 28 min
Bit rate : 1 b/s
Count of elements : 20
Compression mode : Lossless
Stream size : 1.18 KiB (0%)
Title : Forced (Styled)
Language : Ukrainian
Default : No
Forced : No

Text #5
ID : 11
Format : UTF-8
Codec ID : S_TEXT/UTF8
Codec ID/Info : UTF-8 Plain Text
Duration : 2 h 23 min
Bit rate : 71 b/s
Count of elements : 1250
Stream size : 75.2 KiB (0%)
Title : Full
Language : Ukrainian
Default : No
Forced : No

Text #6
ID : 12
Format : ASS
Codec ID : S_TEXT/ASS
Codec ID/Info : Advanced Sub Station Alpha
Duration : 2 h 23 min
Bit rate : 95 b/s
Count of elements : 1250
Compression mode : Lossless
Stream size : 99.8 KiB (0%)
Title : Full (Styled)
Language : Ukrainian
Default : No
Forced : No

Text #7
ID : 13
Format : UTF-8
Codec ID : S_TEXT/UTF8
Codec ID/Info : UTF-8 Plain Text
Duration : 2 h 31 min
Bit rate : 42 b/s
Count of elements : 1304
Stream size : 47.2 KiB (0%)
Title : Full
Language : English
Default : No
Forced : No

Text #8
ID : 14
Format : ASS
Codec ID : S_TEXT/ASS
Codec ID/Info : Advanced Sub Station Alpha
Duration : 2 h 31 min
Bit rate : 65 b/s
Count of elements : 1304
Compression mode : Lossless
Stream size : 72.9 KiB (0%)
Title : Full (Styled)
Language : English
Default : No
Forced : No

Menu
00:00:00.000 : :Doorstep Delivery
00:04:05.411 : :Vanishing Glass
00:08:11.157 : :Letters From No One
00:12:17.403 : :Keeper of the Keys
00:18:25.270 : :Diagon Alley
00:21:43.635 : :Gringotts
00:24:41.646 : :Ollivanders
00:28:49.561 : :The Boy Who Lived
00:31:05.196 : :Platform 9 3/4
00:34:05.543 : :Ron and Hermione
00:37:49.600 : :Welcome to Hogwarts
00:41:29.487 : :Sorting Hat
00:46:13.437 : :Nick and Other Residents
00:50:29.026 : :Potions and Parcels
00:55:04.301 : :New Seeker
01:00:55.652 : :Three-Headed Sentinel
01:03:43.986 : :Facts and Feathers
01:07:48.230 : :Mountain Troll
01:13:49.258 : :Quidditch
01:20:17.979 : :Interference Overcome
01:23:54.529 : :Christmas Gift
01:28:32.473 : :Cloaked in Darkness
01:31:42.497 : :Mirror of Erised
01:36:42.630 : :Norbert
01:42:34.815 : :Forbidden Forest
01:49:05.038 : :Up to Something
01:53:21.628 : :Through the Trapdoor
01:58:09.749 : :Wizards' Chess
02:03:44.750 : :Sacrifice Play
02:06:56.108 : :Man with Two Faces
02:10:55.347 : :Magic Touch
02:14:18.884 : :Mark of Love
02:17:29.574 : :House Cup Winner
02:21:44.662 : :Not Really Going Home
02:24:10.808 : :End Credits
Загрузка...Cкриншот1 Гарри Поттер и философский камень / Harry Potter and the Sorcerer's Stone (2001) [Theatrical Cut] BDRip 1080p [HEVC] 10 bit от -Star-Lord-Загрузка...Cкриншот2 Гарри Поттер и философский камень / Harry Potter and the Sorcerer's Stone (2001) [Theatrical Cut] BDRip 1080p [HEVC] 10 bit от -Star-Lord-Загрузка...Cкриншот3 Гарри Поттер и философский камень / Harry Potter and the Sorcerer's Stone (2001) [Theatrical Cut] BDRip 1080p [HEVC] 10 bit от -Star-Lord-Загрузка...Cкриншот4 Гарри Поттер и философский камень / Harry Potter and the Sorcerer's Stone (2001) [Theatrical Cut] BDRip 1080p [HEVC] 10 bit от -Star-Lord-
Сэмпл Торрент🧲 Магнет

Рейтинги КП и IMDB, кнопки "Позвать в чате" и "Спасибо", а также мультитрекерная статистика сидов и пиров доступны только зарегистрированным/авторизованным пользователям!

Файлы: 1
  • Harry Potter and the Sorcerer's Stone (2001) BDRip 1080p [RUS_3xUKR_ENG] [HEVC-CLUB].mkv   12.1 ГБ
Поблагодарили: 4
Alchemist, makss333, NoMaD, torrentzulu
StarLord
3279901812.1 ГБ

Добавление нового комментария

Добавление комментариев доступно только зарегистрированным/авторизованным пользователям.
Аватар torrentzulu
  torrentzulu  
OldGamer писал(а):
А чем сборка от Mr.Fox не нравится? Она есть у нас
Сорян, пропустил. Действительно есть. С неплохим битрейтом. Спасибо!
Аватар OldGamer
  OldGamer  
torrentzulu писал(а):
Спасибо! А Extended Cut есть возможность сделать? Или она только на DVD выходила?
А чем сборка от Mr.Fox не нравится? Она есть у нас
Аватар torrentzulu
  torrentzulu  
Спасибо! А Extended Cut есть возможность сделать? Или она только на DVD выходила?