💬 Мини-чат

OldGamerну и акустические излучатели собрать хорошие, типа Penaudio Legato Signature или похожие, тут надо тщательно собирать систему для прослушивания
OldGamerне помешает ещё посетить отоларинголога для промывки слухового аппарата от серных пробок специализированным сертифицированным раствором, это (промывка) имеет немаловажное значение
OldGamer😆🤐🤐
OldGamerи всё же лучше hi-end, с подключением кабелями типа Analysis-Plus Oval 9 из бескислородной меди и с их предварительным прогревом системой типа Nordost Vidar, иначе всё теряет смысл
XuMuKManson_Fan, не надо hi-end акустики, достаточно hi-fi. "Кристольность" на высоких частотах другая, в DTS кажется более "живым" звук. Но самая большая разница, когда сравниваешь АС3 с каким-нибудь DTS-HD MA
IRITРаздайте, пожалуйста, Байки из склепа: Демон ночи / Tales from the Crypt: Demon Knight (1995) BDRip 1080p [HEVC] 10 bit от druidblack
OldGamerManson_Fan, у меня нет hi-end акустики, поэтому не слушал, не знаю, может и есть разница. За других говорить не буду. В любом случае, продвинутым слухачам будет несложно найти, скачать и прикрепить дорожки требуемого им качества.
mafo2Manson_Fan, не все телевизоры поддерживают DTS. например, мой через встроенный плеер его не воспроизводит. можно конечно смотреть через ПК, но порой хочется и через ТВ.
Manson_FanOldGamer, "Скажите зачем релизёры звук DTS 768 kbps переделывают в AC3 640 kbps" Интересно, а разницу в качестве в фильмах кому то удавалось услышать?😕 мне вот нет
Manson_Fanникто еще не сравнивал HEVC и новый AV1?
IRITРаздайте, пожалуйста, Маньяк-полицейский 3: Знак молчания / Maniac Cop 3: Badge of Silence (1993) BDRip 1080p [HEVC] 10 bit от HANNIBAL
Spartanec1308С Днём Великой Победы!
BrooklynВсех с праздником! С Днем Великой Победы! Ура-Ура-Урааааааа
BrooklynADVOKAT69, Спасибо большое!
ADVOKAT69Операция «Ы» и другие приключения Шурика (1965) раздаю
mafo2С Днем Победы!
joker63Поздравляю всех с Днем Победы!
ADVOKAT69Admin, Спасибо деду за победу!Тебе за поздравление!
AdminADVOKAT69, Дедам спасибо.
ADVOKAT69Admin, спасибо большое!✋
  • Admin
  • alexyak
  • z_artem
Отправка сообщений доступна только зарегистрированным/авторизованным пользователям.
Онлайн (за 10 мин.): 3

Довод / Тенет / Tenet (2020) [IMAX Edition, iTunes] BDRip 1080p [HEVC] 10 bit от -Star-Lord- (RG RIPS CLUB)

HEVC
10 bit
Обложка Довод / Тенет / Tenet (2020) [IMAX Edition, iTunes] BDRip 1080p [HEVC] 10 bit от -Star-Lord- (RG RIPS CLUB) Год: 2020
Страна: Великобритания, США
Студия: Warner Bros. Pictures Syncopy Inc.
Жанр: Боевик, Драма, Фантастика, Триллер
Продолжительность: 02:30:09

Режиссер: Кристофер Нолан / Christopher Nolan
В ролях: Джон Дэвид Вашингтон, Роберт Паттинсон, Элизабет Дебики, Кеннет Брана, Аарон Тейлор-Джонсон, Майкл Кейн, Химеш Патель, Юрий Колокольников, Димпл Кападиа, Клеманс Поэзи

Описание: После теракта в киевском оперном театре агент ЦРУ объединяется с британской разведкой, чтобы противостоять русскому олигарху, который сколотил состояние на торговле оружием. Для этого агенты используют инверсию времени, заставляющую уже произошедшие события идти вспять.


Видео: 1920x1080, ~6379 Kbps
Аудио1: AC3, 6 ch, 384 Kbps - РусскийРусский, Дублированный (iTunes)
Аудио2: AC3, 6 ch, 384 Kbps - УкраинскийУкраинский, Дублированный (iTunes)
Аудио3: DTS, 6 ch, 1509 Kbps - АнглийскийАнглийский, Оригинал
Субтитры: русские (форсированные, полные), украинские (форсированные), английские (полные, SDH)

Как за пару секунд удалить ненужные аудиодорожки и субтитры (Внимание! После удаления вы не сможете поддержать раздачу)

Лог (x265 info)
x265 [info]: frame I: 2391, Avg QP:16.51 kb/s: 19078.04
x265 [info]: frame P: 42426, Avg QP:18.41 kb/s: 12608.75
x265 [info]: frame B: 171183, Avg QP:20.73 kb/s: 4658.77
x265 [info]: Weighted P-Frames: Y:3.7% UV:2.9%
x265 [info]: Weighted B-Frames: Y:3.6% UV:2.6%
x265 [info]: consecutive B-frames: 9.1% 5.0% 6.7% 35.4% 8.6% 15.3% 4.1% 11.8% 1.6% 1.1% 0.4% 0.7% 0.1% 0.1% 0.1% 0.1% 0.1%
Медиаинфо
General
Unique ID : 301559476329085107371417622499583840433 (0xE2DE3E179956DE58FBE922E4A1B3D0B1)
Complete name : Tenet [IMAX Edition] (2020) BDRip 1080p H.265 [RUS_UKR_ENG].mkv
Format : Matroska
Format version : Version 4
File size : 9.09 GiB
Duration : 2 h 30 min
Overall bit rate : 8 662 kb/s
Movie name : Довод / Тенет / Tenet [IMAX Edition] (2020)
Encoded date : UTC 2020-12-28 23:09:22
Writing application : mkvmerge v20.0.0 ('I Am The Sun') 64-bit
Writing library : libebml v1.3.5 + libmatroska v1.4.8
Cover : Yes
Attachments : Cover.jpg

Video
ID : 1
Format : HEVC
Format/Info : High Efficiency Video Coding
Format profile : Main 10@L4.1@High
Codec ID : V_MPEGH/ISO/HEVC
Duration : 2 h 30 min
Bit rate : 6 381 kb/s
Width : 1 920 pixels
Height : 1 080 pixels
Display aspect ratio : 16:9
Frame rate mode : Constant
Frame rate : 23.976 (24000/1001) FPS
Color space : YUV
Chroma subsampling : 4:2:0
Bit depth : 10 bits
Bits/(Pixel*Frame) : 0.128
Stream size : 6.69 GiB (74%)
Title : Довод / Тенет / Tenet [IMAX Edition] (2020)
Writing library : x265 3.4+12-g9103319fc:[Windows][GCC 10.2.0][64 bit] 10bit
Encoding settings : cpuid=1111039 / frame-threads=3 / numa-pools=12 / wpp / no-pmode / no-pme / no-psnr / no-ssim / log-level=2 / input-csp=1 / input-res=1920x1080 / interlace=0 / total-frames=216000 / level-idc=41 / high-tier=1 / uhd-bd=0 / ref=5 / no-allow-non-conformance / no-repeat-headers / annexb / no-aud / no-hrd / info / hash=0 / no-temporal-layers / open-gop / min-keyint=23 / keyint=240 / gop-lookahead=0 / bframes=16 / b-adapt=2 / b-pyramid / bframe-bias=0 / rc-lookahead=60 / lookahead-slices=0 / scenecut=40 / hist-scenecut=0 / radl=0 / no-splice / no-intra-refresh / ctu=32 / min-cu-size=8 / rect / amp / max-tu-size=32 / tu-inter-depth=4 / tu-intra-depth=4 / limit-tu=0 / rdoq-level=2 / dynamic-rd=0.00 / no-ssim-rd / signhide / tskip / nr-intra=0 / nr-inter=0 / no-constrained-intra / no-strong-intra-smoothing / max-merge=5 / limit-refs=0 / no-limit-modes / me=3 / subme=7 / merange=57 / temporal-mvp / no-frame-dup / no-hme / weightp / weightb / no-analyze-src-pics / deblock=-3:-3 / no-sao / no-sao-non-deblock / rd=6 / selective-sao=0 / no-early-skip / no-rskip / no-fast-intra / no-tskip-fast / no-cu-lossless / no-b-intra / no-splitrd-skip / rdpenalty=0 / psy-rd=2.00 / psy-rdoq=1.00 / no-rd-refine / no-lossless / cbqpoffs=0 / crqpoffs=0 / rc=crf / crf=20.0 / qcomp=0.68 / qpstep=4 / stats-write=0 / stats-read=0 / vbv-maxrate=50000 / vbv-bufsize=50000 / vbv-init=0.9 / crf-max=0.0 / crf-min=0.0 / ipratio=1.40 / pbratio=1.30 / aq-mode=2 / aq-strength=1.00 / no-cutree / zone-count=0 / no-strict-cbr / qg-size=32 / no-rc-grain / qpmax=69 / qpmin=0 / no-const-vbv / sar=1 / overscan=0 / videoformat=5 / range=0 / colorprim=1 / transfer=1 / colormatrix=1 / chromaloc=0 / display-window=0 / cll=0,0 / min-luma=0 / max-luma=1023 / log2-max-poc-lsb=8 / vui-timing-info / vui-hrd-info / slices=1 / no-opt-qp-pps / no-opt-ref-list-length-pps / no-multi-pass-opt-rps / scenecut-bias=0.05 / hist-threshold=0.01 / no-opt-cu-delta-qp / no-aq-motion / no-hdr10 / no-hdr10-opt / no-dhdr10-opt / no-idr-recovery-sei / analysis-reuse-level=0 / analysis-save-reuse-level=0 / analysis-load-reuse-level=0 / scale-factor=0 / refine-intra=0 / refine-inter=0 / refine-mv=1 / refine-ctu-distortion=0 / no-limit-sao / ctu-info=0 / no-lowpass-dct / refine-analysis-type=0 / copy-pic=1 / max-ausize-factor=1.0 / no-dynamic-refine / no-single-sei / no-hevc-aq / no-svt / no-field / qp-adaptation-range=1.00 / no-scenecut-aware-qpconformance-window-offsets / right=0 / bottom=0 / decoder-max-rate=0
Default : Yes
Forced : Yes
Color range : Limited
Color primaries : BT.709
Transfer characteristics : BT.709
Matrix coefficients : BT.709

Audio #1
ID : 2
Format : AC-3
Format/Info : Audio Coding 3
Commercial name : Dolby Digital
Codec ID : A_AC3
Duration : 2 h 30 min
Bit rate mode : Constant
Bit rate : 384 kb/s
Channel(s) : 6 channels
Channel layout : L R C LFE Ls Rs
Sampling rate : 48.0 kHz
Frame rate : 31.250 FPS (1536 SPF)
Compression mode : Lossy
Stream size : 412 MiB (4%)
Title : AC-3 / 5.1 Ch / 384 kbps / DUB / iTunes
Language : Russian
Service kind : Complete Main
Default : Yes
Forced : Yes

Audio #2
ID : 3
Format : AC-3
Format/Info : Audio Coding 3
Commercial name : Dolby Digital
Codec ID : A_AC3
Duration : 2 h 30 min
Bit rate mode : Constant
Bit rate : 384 kb/s
Channel(s) : 6 channels
Channel layout : L R C LFE Ls Rs
Sampling rate : 48.0 kHz
Frame rate : 31.250 FPS (1536 SPF)
Compression mode : Lossy
Stream size : 412 MiB (4%)
Title : AC-3 / 5.1 Ch / 384 kbps / DUB / iTunes
Language : Ukrainian
Service kind : Complete Main
Default : No
Forced : No

Audio #3
ID : 4
Format : DTS
Format/Info : Digital Theater Systems
Codec ID : A_DTS
Duration : 2 h 30 min
Bit rate mode : Constant
Bit rate : 1 509 kb/s
Channel(s) : 6 channels
Channel layout : C L R Ls Rs LFE
Sampling rate : 48.0 kHz
Frame rate : 93.750 FPS (512 SPF)
Bit depth : 24 bits
Compression mode : Lossy
Stream size : 1.58 GiB (17%)
Title : DTS / 5.1 Ch / 1509 kbps / Original
Language : English
Default : No
Forced : No

Text #1
ID : 5
Format : UTF-8
Codec ID : S_TEXT/UTF8
Codec ID/Info : UTF-8 Plain Text
Duration : 2 h 27 min
Bit rate : 0 b/s
Count of elements : 28
Stream size : 811 Bytes (0%)
Title : Forced
Language : Russian
Default : Yes
Forced : Yes

Text #2
ID : 6
Format : UTF-8
Codec ID : S_TEXT/UTF8
Codec ID/Info : UTF-8 Plain Text
Duration : 2 h 28 min
Bit rate : 90 b/s
Count of elements : 1854
Stream size : 98.8 KiB (0%)
Title : Full
Language : Russian
Default : No
Forced : No

Text #3
ID : 7
Format : UTF-8
Codec ID : S_TEXT/UTF8
Codec ID/Info : UTF-8 Plain Text
Duration : 2 h 16 min
Bit rate : 0 b/s
Count of elements : 24
Stream size : 731 Bytes (0%)
Title : Forced
Language : Ukrainian
Default : No
Forced : No

Text #4
ID : 8
Format : UTF-8
Codec ID : S_TEXT/UTF8
Codec ID/Info : UTF-8 Plain Text
Duration : 2 h 16 min
Bit rate : 0 b/s
Count of elements : 24
Stream size : 731 Bytes (0%)
Title : Full
Language : English
Default : No
Forced : No

Text #5
ID : 9
Format : UTF-8
Codec ID : S_TEXT/UTF8
Codec ID/Info : UTF-8 Plain Text
Duration : 2 h 26 min
Bit rate : 59 b/s
Count of elements : 2141
Stream size : 64.0 KiB (0%)
Title : SDH
Language : English
Default : No
Forced : No

Menu
00:00:00.000 : :Chapter 01
00:09:39.412 : :Chapter 02
00:19:30.502 : :Chapter 03
00:28:18.405 : :Chapter 04
00:38:49.368 : :Chapter 05
00:49:20.165 : :Chapter 06
01:00:33.254 : :Chapter 07
01:09:41.510 : :Chapter 08
01:22:36.409 : :Chapter 09
01:30:54.740 : :Chapter 10
01:39:40.683 : :Chapter 11
01:51:02.322 : :Chapter 12
01:59:40.798 : :Chapter 13
02:11:42.853 : :Chapter 14
02:19:07.088 : :Chapter 15
Загрузка...Cкриншот1 Довод / Тенет / Tenet (2020) [IMAX Edition, iTunes] BDRip 1080p [HEVC] 10 bit от -Star-Lord- (RG RIPS CLUB)Загрузка...Cкриншот2 Довод / Тенет / Tenet (2020) [IMAX Edition, iTunes] BDRip 1080p [HEVC] 10 bit от -Star-Lord- (RG RIPS CLUB)Загрузка...Cкриншот3 Довод / Тенет / Tenet (2020) [IMAX Edition, iTunes] BDRip 1080p [HEVC] 10 bit от -Star-Lord- (RG RIPS CLUB)Загрузка...Cкриншот4 Довод / Тенет / Tenet (2020) [IMAX Edition, iTunes] BDRip 1080p [HEVC] 10 bit от -Star-Lord- (RG RIPS CLUB)
Релиз-группа: RIPS CLUB
Сэмпл Торрент🧲 Магнет

Рейтинги КП и IMDB, кнопки "Позвать в чате" и "Спасибо", а также мультитрекерная статистика доступны только зарегистрированным/авторизованным пользователям!

Файлы: 1
  • Tenet [IMAX Edition] (2020) BDRip 1080p H.265 [RUS_UKR_ENG].mkv   9.09 ГБ
Поблагодарили: 17
alexyak, and50, Brooklyn, GIS88, InSpector, IRIT, joker1001, makss333, medved2018, NoMaD, RDigit, sergeich, Tony, torrentzulu, VadimM, z_artem, Херсонец
StarLord
112338414269.09 ГБ

Добавление нового комментария

Добавление комментариев доступно только зарегистрированным/авторизованным пользователям.
Аватар не указан
  EiffeL  
Замечательный фильм! Таких давно не было. Благодарю!