💬 Мини-чат

GiggaloСообщение удалено (удалил: Giggalo)
StarLordOldGamer, как дела?)
StarLordOldGamer, ура, вернулся 😄
OldGamerRezident, можете скачать этот фильм от другого релизёра, там невелика разница, а раздающие точно есть
OldGamerGiggalo, https://tsya.ru/mnemonic.html
NoMaDСообщение удалено (удалил: NoMaD)
NoMaDСообщение удалено (удалил: NoMaD)
GiggaloСообщение удалено (удалил: Giggalo)
GiggaloСообщение удалено (удалил: Giggalo)
Spartanec1308Был днём
StarLordGiggalo, наверное отрубало беднягу, целый день его нету 😅
GiggaloСообщение удалено (удалил: Giggalo)
OldGamerДоброе. Работы много, некогда на перинах валяться.
GiggaloСообщение удалено (удалил: Giggalo)
GiggaloСообщение удалено (удалил: Giggalo)
  • Spartanec1308
  • Giggalo
  • alenu
  • Blaster
Отправка сообщений доступна только зарегистрированным/авторизованным пользователям.
Онлайн (за 10 мин.): 4

Эйс Вентура 2: Когда зовет природа / Ace Ventura: When Nature Calls (1995) BDRip 1080p [HEVC] 10 bit от -Star-Lord- (RG RIPS CLUB)

HEVC
10 bit
Обложка Эйс Вентура 2: Когда зовет природа / Ace Ventura: When Nature Calls (1995) BDRip 1080p [HEVC] 10 bit от -Star-Lord- (RG RIPS CLUB) Год: 1995
Страна: США
Студия: Morgan Creek Productions, Warner Bros.
Жанр: Комедия, Приключения
Продолжительность: 01:34:04

Режиссер: Стив Одекерк
В ролях: Джим Керри, Иэн МакНис, Саймон Кэллоу, Боб Гантон, Софи Оконедо, Брюс Спенс, Мейнард Эзиаши, Адевале Акинойе-Агбаже, Томми Дэвидсон, Дэймон Стандифер

Описание: Место действия — Африка. Знаменитый детектив Эйс Вентура, единственный в мире специалист по розыску пропавших домашних любимцев, снова в деле. На этот раз Эйс должен найти Шикаку — священное животное племени Вачати. Без Шикаки не может состояться свадьба дочери вождя племени Вачати и сына вождя воинственного племени Вачуту. Если Эйс провалит задание, начнется межплеменная война. Но Эйс Вентура не из тех, кто отступает перед трудностями. В поисках священной Шикаки он сражается с аллигаторами, приручает слонов, подражает обезьянам, качается на лианах, ходит по раскаленным углям, вылезает, к ужасу семьи американских туристов, из задницы носорога и ставит «на уши» всю Африку.


Видео: 1920x800, ~9796 Кбит/сек
Аудио1: AC3, 6 ch, 384 Kbps - РусскийРусский, Дублированный (Мост Видео)
Аудио2: AC3, 2 ch, 192 Kbps - РусскийРусский, Многоголосый (Варус Видео)
Аудио3: AC3, 2 ch, 192 Kbps - РусскийРусский, Двухголосый (Екатеринбург Арт)
Аудио4: AC3, 2 ch, 192 Kbps - РусскийРусский, Двухголосый (НТВ, ТНТ, РЕНТВ)
Аудио5: AC3, 6 ch, 384 Kbps - РусскийРусский, Многоголосый (d2lab)
Аудио6: AC3, 2 ch, 192 Kbps - РусскийРусский, Двухголосый (Universal Channel)
Аудио7: AC3, 5 ch, 448 Kbps - РусскийРусский, Одноголосый (Санаев)
Аудио8: AC3, 5 ch, 448 Kbps - РусскийРусский, Одноголосый (Живов)
Аудио9: AC3, 2 ch, 192 Kbps - РусскийРусский, Одноголосый (Визгунов)
Аудио10: AC3, 6 ch, 384 Kbps - РусскийРусский, Одноголосый (Латышев-CDV)
Аудио11: AC3, 2 ch, 192 Kbps - УкраинскийУкраинский, Многоголосый (AMC)
Аудио12: AC3, 2 ch, 192 Kbps - УкраинскийУкраинский, Двухголосый (ICTV, Новий Канал)
Аудио13: AC3, 2 ch, 192 Kbps - УкраинскийУкраинский, Двухголосый (1+1)
Аудио14: AC3, 6 ch, 448 Kbps - АнглийскийАнглийский, Оригинал
Субтитры: Русские, английские (полные, SDH)

Как за пару секунд удалить ненужные аудиодорожки и субтитры (Внимание! После удаления вы не сможете поддержать раздачу)

Медиаинфо
General
Unique ID : 320444743696449272023538455499081005766 (0xF11369A95F02DCD2BCC35562E3103AC6)
Complete name : Ace Ventura - When Nature Calls (1995) BDRip 1080p H.265 [10xRUS_3xUKR_ENG] [RIPS-CLUB].mkv
Format : Matroska
Format version : Version 4
File size : 9.09 GiB
Duration : 1 h 34 min
Overall bit rate : 13.8 Mb/s
Movie name : Эйс Вентура 2: Когда зовет природа / Ейс Вентура 2: поклик природи / Ace Ventura: When Nature Calls (1995)
Encoded date : UTC 2021-03-24 16:57:05
Writing application : mkvmerge v20.0.0 ('I Am The Sun') 64-bit
Writing library : libebml v1.3.5 + libmatroska v1.4.8
Cover : Yes
Attachments : Cover.jpg

Video
ID : 1
Format : HEVC
Format/Info : High Efficiency Video Coding
Format profile : Main 10@L4.1@High
Codec ID : V_MPEGH/ISO/HEVC
Duration : 1 h 34 min
Bit rate : 9 796 kb/s
Width : 1 920 pixels
Height : 800 pixels
Display aspect ratio : 2.40:1
Frame rate mode : Constant
Frame rate : 23.976 (24000/1001) FPS
Color space : YUV
Chroma subsampling : 4:2:0
Bit depth : 10 bits
Bits/(Pixel*Frame) : 0.266
Stream size : 6.44 GiB (71%)
Title : Эйс Вентура 2: Когда зовет природа / Ейс Вентура 2: поклик природи / Ace Ventura: When Nature Calls (1995)
Writing library : x265 3.5+1-ce882936d:[Windows][GCC 10.2.0][64 bit] 10bit
Encoding settings : cpuid=1111039 / frame-threads=3 / numa-pools=12 / wpp / no-pmode / no-pme / no-psnr / no-ssim / log-level=2 / input-csp=1 / input-res=1920x800 / interlace=0 / total-frames=135311 / level-idc=41 / high-tier=1 / uhd-bd=0 / ref=5 / no-allow-non-conformance / no-repeat-headers / annexb / no-aud / no-hrd / info / hash=0 / no-temporal-layers / open-gop / min-keyint=23 / keyint=240 / gop-lookahead=0 / bframes=16 / b-adapt=2 / b-pyramid / bframe-bias=0 / rc-lookahead=60 / lookahead-slices=4 / scenecut=40 / hist-scenecut=0 / radl=0 / no-splice / no-intra-refresh / ctu=32 / min-cu-size=8 / rect / amp / max-tu-size=32 / tu-inter-depth=4 / tu-intra-depth=4 / limit-tu=1 / rdoq-level=2 / dynamic-rd=0.00 / no-ssim-rd / signhide / no-tskip / nr-intra=0 / nr-inter=0 / no-constrained-intra / no-strong-intra-smoothing / max-merge=5 / limit-refs=2 / limit-modes / me=3 / subme=7 / merange=57 / temporal-mvp / no-frame-dup / no-hme / weightp / weightb / no-analyze-src-pics / deblock=-3:-3 / no-sao / no-sao-non-deblock / rd=6 / selective-sao=0 / no-early-skip / no-rskip / no-fast-intra / no-tskip-fast / no-cu-lossless / no-b-intra / no-splitrd-skip / rdpenalty=0 / psy-rd=2.00 / psy-rdoq=1.00 / no-rd-refine / no-lossless / cbqpoffs=0 / crqpoffs=0 / rc=crf / crf=19.0 / qcomp=0.70 / qpstep=4 / stats-write=0 / stats-read=0 / vbv-maxrate=50000 / vbv-bufsize=50000 / vbv-init=0.9 / min-vbv-fullness=50.0 / max-vbv-fullness=80.0 / crf-max=0.0 / crf-min=0.0 / ipratio=1.40 / pbratio=1.30 / aq-mode=1 / aq-strength=1.00 / no-cutree / zone-count=0 / no-strict-cbr / qg-size=32 / no-rc-grain / qpmax=69 / qpmin=0 / no-const-vbv / sar=1 / overscan=0 / videoformat=5 / range=0 / colorprim=2 / transfer=2 / colormatrix=2 / chromaloc=0 / display-window=0 / cll=0,0 / min-luma=0 / max-luma=1023 / log2-max-poc-lsb=8 / vui-timing-info / vui-hrd-info / slices=1 / no-opt-qp-pps / no-opt-ref-list-length-pps / no-multi-pass-opt-rps / scenecut-bias=0.05 / hist-threshold=0.03 / no-opt-cu-delta-qp / no-aq-motion / no-hdr10 / no-hdr10-opt / no-dhdr10-opt / no-idr-recovery-sei / analysis-reuse-level=0 / analysis-save-reuse-level=0 / analysis-load-reuse-level=0 / scale-factor=0 / refine-intra=0 / refine-inter=0 / refine-mv=1 / refine-ctu-distortion=0 / no-limit-sao / ctu-info=0 / no-lowpass-dct / refine-analysis-type=0 / copy-pic=1 / max-ausize-factor=1.0 / no-dynamic-refine / no-single-sei / no-hevc-aq / no-svt / no-field / qp-adaptation-range=1.00 / scenecut-aware-qp=0conformance-window-offsets / right=0 / bottom=0 / decoder-max-rate=0 / no-vbv-live-multi-pass
Default : Yes
Forced : No
Color range : Limited

Audio #1
ID : 2
Format : AC-3
Format/Info : Audio Coding 3
Commercial name : Dolby Digital
Codec ID : A_AC3
Duration : 1 h 34 min
Bit rate mode : Constant
Bit rate : 384 kb/s
Channel(s) : 6 channels
Channel layout : L R C LFE Ls Rs
Sampling rate : 48.0 kHz
Frame rate : 31.250 FPS (1536 SPF)
Compression mode : Lossy
Stream size : 258 MiB (3%)
Title : AC-3 / 5.1 Ch / 384 kbps / DUB / Мост Видео
Language : Russian
Service kind : Complete Main
Default : No
Forced : Yes

Audio #2
ID : 3
Format : AC-3
Format/Info : Audio Coding 3
Commercial name : Dolby Digital
Codec ID : A_AC3
Duration : 1 h 34 min
Bit rate mode : Constant
Bit rate : 192 kb/s
Channel(s) : 2 channels
Channel layout : L R
Sampling rate : 48.0 kHz
Frame rate : 31.250 FPS (1536 SPF)
Compression mode : Lossy
Stream size : 129 MiB (1%)
Title : AC3 / 2.0 Ch / 192 kbps / MVO / Варус Видео
Language : Russian
Service kind : Complete Main
Default : No
Forced : Yes

Audio #3
ID : 4
Format : AC-3
Format/Info : Audio Coding 3
Commercial name : Dolby Digital
Codec ID : A_AC3
Duration : 1 h 34 min
Bit rate mode : Constant
Bit rate : 192 kb/s
Channel(s) : 2 channels
Channel layout : L R
Sampling rate : 48.0 kHz
Frame rate : 31.250 FPS (1536 SPF)
Compression mode : Lossy
Stream size : 129 MiB (1%)
Title : AC-3 / 2.0 Ch / 192 kbps / DVO / Екатеринбург Арт
Language : Russian
Service kind : Complete Main
Default : No
Forced : No

Audio #4
ID : 5
Format : AC-3
Format/Info : Audio Coding 3
Commercial name : Dolby Digital
Codec ID : A_AC3
Duration : 1 h 34 min
Bit rate mode : Constant
Bit rate : 192 kb/s
Channel(s) : 2 channels
Channel layout : L R
Sampling rate : 48.0 kHz
Frame rate : 31.250 FPS (1536 SPF)
Compression mode : Lossy
Stream size : 129 MiB (1%)
Title : AC-3 / 2.0 Ch / 192 kbps / DVO / НТВ, ТНТ, РЕНТВ
Language : Russian
Service kind : Complete Main
Default : No
Forced : No

Audio #5
ID : 6
Format : AC-3
Format/Info : Audio Coding 3
Commercial name : Dolby Digital
Codec ID : A_AC3
Duration : 1 h 34 min
Bit rate mode : Constant
Bit rate : 384 kb/s
Channel(s) : 6 channels
Channel layout : L R C LFE Ls Rs
Sampling rate : 48.0 kHz
Frame rate : 31.250 FPS (1536 SPF)
Compression mode : Lossy
Stream size : 258 MiB (3%)
Title : AC-3 / 5.1 Ch / 384 kbps / MVO / d2lab
Language : Russian
Service kind : Complete Main
Default : No
Forced : No

Audio #6
ID : 7
Format : AC-3
Format/Info : Audio Coding 3
Commercial name : Dolby Digital
Codec ID : A_AC3
Duration : 1 h 34 min
Bit rate mode : Constant
Bit rate : 192 kb/s
Channel(s) : 2 channels
Channel layout : L R
Sampling rate : 48.0 kHz
Frame rate : 31.250 FPS (1536 SPF)
Compression mode : Lossy
Stream size : 129 MiB (1%)
Title : AC-3 / 2.0 Ch / 192 kbps / DVO / Universal Channel
Language : Russian
Service kind : Complete Main
Default : No
Forced : No

Audio #7
ID : 8
Format : AC-3
Format/Info : Audio Coding 3
Commercial name : Dolby Digital
Codec ID : A_AC3
Duration : 1 h 34 min
Bit rate mode : Constant
Bit rate : 448 kb/s
Channel(s) : 5 channels
Channel layout : L R C Ls Rs
Sampling rate : 48.0 kHz
Frame rate : 31.250 FPS (1536 SPF)
Compression mode : Lossy
Stream size : 301 MiB (3%)
Title : AC-3 / 5.0 Ch / 448 kbps / VO / Санаев
Language : Russian
Service kind : Complete Main
Default : No
Forced : No

Audio #8
ID : 9
Format : AC-3
Format/Info : Audio Coding 3
Commercial name : Dolby Digital
Codec ID : A_AC3
Duration : 1 h 34 min
Bit rate mode : Constant
Bit rate : 448 kb/s
Channel(s) : 5 channels
Channel layout : L R C Ls Rs
Sampling rate : 48.0 kHz
Frame rate : 31.250 FPS (1536 SPF)
Compression mode : Lossy
Stream size : 301 MiB (3%)
Title : AC-3 / 5.0 Ch / 448 kbps / VO / Живов
Language : Russian
Service kind : Complete Main
Default : No
Forced : No

Audio #9
ID : 10
Format : AC-3
Format/Info : Audio Coding 3
Commercial name : Dolby Digital
Codec ID : A_AC3
Duration : 1 h 34 min
Bit rate mode : Constant
Bit rate : 192 kb/s
Channel(s) : 2 channels
Channel layout : L R
Sampling rate : 48.0 kHz
Frame rate : 31.250 FPS (1536 SPF)
Compression mode : Lossy
Stream size : 129 MiB (1%)
Title : AC-3 / 2.0 Ch / 192 kbps / VO / Визгунов
Language : Russian
Service kind : Complete Main
Default : No
Forced : No

Audio #10
ID : 11
Format : AC-3
Format/Info : Audio Coding 3
Commercial name : Dolby Digital
Codec ID : A_AC3
Duration : 1 h 34 min
Bit rate mode : Constant
Bit rate : 384 kb/s
Channel(s) : 6 channels
Channel layout : L R C LFE Ls Rs
Sampling rate : 48.0 kHz
Frame rate : 31.250 FPS (1536 SPF)
Compression mode : Lossy
Stream size : 258 MiB (3%)
Title : AC-3 / 5.1 Ch / 384 kbps / VO / Латышев-CDV
Language : Russian
Service kind : Complete Main
Default : No
Forced : No

Audio #11
ID : 12
Format : AC-3
Format/Info : Audio Coding 3
Commercial name : Dolby Digital
Codec ID : A_AC3
Duration : 1 h 34 min
Bit rate mode : Constant
Bit rate : 192 kb/s
Channel(s) : 2 channels
Channel layout : L R
Sampling rate : 48.0 kHz
Frame rate : 31.250 FPS (1536 SPF)
Compression mode : Lossy
Delay relative to video : 1 s 995 ms
Stream size : 129 MiB (1%)
Title : AC3 / 2.0 Ch / 192 kbps / MVO / AMC
Language : Ukrainian
Service kind : Complete Main
Default : Yes
Forced : Yes

Audio #12
ID : 13
Format : AC-3
Format/Info : Audio Coding 3
Commercial name : Dolby Digital
Codec ID : A_AC3
Duration : 1 h 34 min
Bit rate mode : Constant
Bit rate : 192 kb/s
Channel(s) : 2 channels
Channel layout : L R
Sampling rate : 48.0 kHz
Frame rate : 31.250 FPS (1536 SPF)
Compression mode : Lossy
Stream size : 129 MiB (1%)
Title : AC3 / 2.0 Ch / 192 kbps / DVO / ICTV, Nony Kanal
Language : Ukrainian
Service kind : Complete Main
Default : No
Forced : No

Audio #13
ID : 14
Format : AC-3
Format/Info : Audio Coding 3
Commercial name : Dolby Digital
Codec ID : A_AC3
Duration : 1 h 34 min
Bit rate mode : Constant
Bit rate : 192 kb/s
Channel(s) : 2 channels
Channel layout : L R
Sampling rate : 48.0 kHz
Frame rate : 31.250 FPS (1536 SPF)
Compression mode : Lossy
Stream size : 129 MiB (1%)
Title : AC3 / 2.0 Ch / 192 kbps / DVO / 1+1
Language : Ukrainian
Service kind : Complete Main
Default : No
Forced : No

Audio #14
ID : 15
Format : AC-3
Format/Info : Audio Coding 3
Commercial name : Dolby Digital
Codec ID : A_AC3
Duration : 1 h 34 min
Bit rate mode : Constant
Bit rate : 448 kb/s
Channel(s) : 5 channels
Channel layout : L R C Ls Rs
Sampling rate : 48.0 kHz
Frame rate : 31.250 FPS (1536 SPF)
Compression mode : Lossy
Stream size : 301 MiB (3%)
Title : AC3 / 5.1 Ch / 448 kbps / Original
Language : English
Service kind : Complete Main
Default : No
Forced : No

Text #1
ID : 16
Format : UTF-8
Codec ID : S_TEXT/UTF8
Codec ID/Info : UTF-8 Plain Text
Duration : 1 h 25 min
Bit rate : 52 b/s
Count of elements : 909
Stream size : 33.2 KiB (0%)
Title : Full
Language : Russian
Default : No
Forced : No

Text #2
ID : 17
Format : UTF-8
Codec ID : S_TEXT/UTF8
Codec ID/Info : UTF-8 Plain Text
Duration : 1 h 32 min
Bit rate : 45 b/s
Count of elements : 916
Stream size : 31.2 KiB (0%)
Title : Full
Language : English
Default : No
Forced : No

Text #3
ID : 18
Format : UTF-8
Codec ID : S_TEXT/UTF8
Codec ID/Info : UTF-8 Plain Text
Duration : 1 h 32 min
Bit rate : 54 b/s
Count of elements : 1190
Stream size : 37.2 KiB (0%)
Title : SDH
Language : English
Default : No
Forced : No

Menu
00:00:00.000 : en:To the Rescue (Credits)
00:02:58.845 : en:"Hungry, Fella?"
00:03:55.902 : en:The Raccoon That Got Away
00:06:01.194 : en:More One Than Anyone
00:10:51.859 : en:Stepping Out
00:12:26.203 : en:Menagerie in the Air
00:14:20.401 : en:Chitty Chitty Bang Bang
00:16:59.018 : en:How Good Ace Is
00:18:51.213 : en:The Monopoly Man
00:21:47.973 : en:Shadow Play
00:24:27.632 : en:The Nature of the Beast
00:26:48.440 : en:Gobs of Affection; Shikaka
00:32:21.648 : en:The Virgin's Dance of Destruction
00:34:37.992 : en:Nearly Clueless
00:35:29.043 : en:Spitball and Mantra Practice
00:39:14.894 : en:Going to Bats
00:41:31.030 : en:Master of Disguises (Secret Agent Man)
00:43:40.534 : en:Mother Rhino
00:47:15.123 : en:Eye Contact
00:50:22.144 : en:Numbstruck
00:51:53.735 : en:Infiltrating the Wachootoo
00:55:13.643 : en:Lost in the Translation
00:56:37.769 : en:Put to the Test
00:58:41.684 : en:The Circle of Death
01:00:32.337 : en:Making the Point Twice
01:03:02.904 : en:The Wachootoo Sendoff
01:04:08.511 : en:The Real Batnappers
01:06:58.639 : en:Rafting and Wrestling
01:09:26.829 : en:A Valuable Commodity After All
01:12:25.591 : en:The Slime Behind the Flimflam
01:17:27.809 : en:"Lend Me Your Rears"
01:17:48.497 : en:Animals Underfoot
01:20:09.930 : en:Big Wheels, Little Wheels
01:22:44.459 : en:The Bat Is Back
01:25:32.127 : en:"They Can Tell That?"
01:26:43.031 : en:End Credits
01:34:03.346 : en:End
Загрузка...Cкриншот1 Эйс Вентура 2: Когда зовет природа / Ace Ventura: When Nature Calls (1995) BDRip 1080p [HEVC] 10 bit от -Star-Lord- (RG RIPS CLUB)Загрузка...Cкриншот2 Эйс Вентура 2: Когда зовет природа / Ace Ventura: When Nature Calls (1995) BDRip 1080p [HEVC] 10 bit от -Star-Lord- (RG RIPS CLUB)Загрузка...Cкриншот3 Эйс Вентура 2: Когда зовет природа / Ace Ventura: When Nature Calls (1995) BDRip 1080p [HEVC] 10 bit от -Star-Lord- (RG RIPS CLUB)Загрузка...Cкриншот4 Эйс Вентура 2: Когда зовет природа / Ace Ventura: When Nature Calls (1995) BDRip 1080p [HEVC] 10 bit от -Star-Lord- (RG RIPS CLUB)
Релиз-группа: RIPS CLUB
Сэмпл Торрент🧲 Магнет

Рейтинги КП и IMDB, кнопки "Позвать в чате" и "Спасибо", а также мультитрекерная статистика доступны только зарегистрированным/авторизованным пользователям!

Файлы: 1
  • Ace Ventura - When Nature Calls (1995) BDRip 1080p H.265 [10xRUS_3xUKR_ENG] [RIPS-CLUB].mkv   9.09 ГБ
Поблагодарили: 11
alexyak, anderb, donadar, HANNIBAL, Kiran, mafo2, makss333, MIGRANT, NoMaD, OldGamer, Spartanec1308
StarLord
590109.09 ГБ

Добавление нового комментария

Добавление комментариев доступно только зарегистрированным/авторизованным пользователям.
Аватар StarLord
  StarLord  
mafo2 писал(а):
Да на Толоке почти на все есть украинская озвучка причем часто в нескольких вариантах. На Матрицу аж три перевода, правда все 2.0, но это мелочи.
На авторский действительно не натыкался, но считаю это скорее плюсом чем минусом, у нас прекрасные профессиональные актеры озвучивания )
Есть множество фильмов без озвучивания.
Аватар mafo2
  mafo2  
StarLord писал(а):
Их вообще нету... Если есть хоть какой-то перевод или озвучивание - уже хорошо :)
Да на Толоке почти на все есть украинская озвучка причем часто в нескольких вариантах. На Матрицу аж три перевода, правда все 2.0, но это мелочи.
На авторский действительно не натыкался, но считаю это скорее плюсом чем минусом, у нас прекрасные профессиональные актеры озвучивания )
Аватар StarLord
  StarLord  
OldGamer писал(а):
А с авторскими на Украине беда? Нет аналогов Яроцкого например?
Их вообще нету... Если есть хоть какой-то перевод или озвучивание - уже хорошо :)
Аватар OldGamer
  OldGamer  
А с авторскими на Украине беда? Нет аналогов Яроцкого например?
Аватар не указан
  donadar  
Украинский, Двухголосый (ICTV, Новий Канал) любимый перевод!