💬 Мини-чат

OldGamerну и акустические излучатели собрать хорошие, типа Penaudio Legato Signature или похожие, тут надо тщательно собирать систему для прослушивания
OldGamerне помешает ещё посетить отоларинголога для промывки слухового аппарата от серных пробок специализированным сертифицированным раствором, это (промывка) имеет немаловажное значение
OldGamer😆🤐🤐
OldGamerи всё же лучше hi-end, с подключением кабелями типа Analysis-Plus Oval 9 из бескислородной меди и с их предварительным прогревом системой типа Nordost Vidar, иначе всё теряет смысл
XuMuKManson_Fan, не надо hi-end акустики, достаточно hi-fi. "Кристольность" на высоких частотах другая, в DTS кажется более "живым" звук. Но самая большая разница, когда сравниваешь АС3 с каким-нибудь DTS-HD MA
IRITРаздайте, пожалуйста, Байки из склепа: Демон ночи / Tales from the Crypt: Demon Knight (1995) BDRip 1080p [HEVC] 10 bit от druidblack
OldGamerManson_Fan, у меня нет hi-end акустики, поэтому не слушал, не знаю, может и есть разница. За других говорить не буду. В любом случае, продвинутым слухачам будет несложно найти, скачать и прикрепить дорожки требуемого им качества.
mafo2Manson_Fan, не все телевизоры поддерживают DTS. например, мой через встроенный плеер его не воспроизводит. можно конечно смотреть через ПК, но порой хочется и через ТВ.
Manson_FanOldGamer, "Скажите зачем релизёры звук DTS 768 kbps переделывают в AC3 640 kbps" Интересно, а разницу в качестве в фильмах кому то удавалось услышать?😕 мне вот нет
Manson_Fanникто еще не сравнивал HEVC и новый AV1?
IRITРаздайте, пожалуйста, Маньяк-полицейский 3: Знак молчания / Maniac Cop 3: Badge of Silence (1993) BDRip 1080p [HEVC] 10 bit от HANNIBAL
Spartanec1308С Днём Великой Победы!
BrooklynВсех с праздником! С Днем Великой Победы! Ура-Ура-Урааааааа
BrooklynADVOKAT69, Спасибо большое!
ADVOKAT69Операция «Ы» и другие приключения Шурика (1965) раздаю
mafo2С Днем Победы!
joker63Поздравляю всех с Днем Победы!
ADVOKAT69Admin, Спасибо деду за победу!Тебе за поздравление!
AdminADVOKAT69, Дедам спасибо.
ADVOKAT69Admin, спасибо большое!✋
  • Admin
  • alenu
  • masterok36
Отправка сообщений доступна только зарегистрированным/авторизованным пользователям.
Онлайн (за 10 мин.): 3

Порко Россо / Kurenai no Buta (1992) BDRip 1080p [HEVC] 10 bit от -Star-Lord- (RG RIPS CLUB)

HEVC
10 bit
Обложка Порко Россо / Kurenai no Buta (1992) BDRip 1080p [HEVC] 10 bit от -Star-Lord- (RG RIPS CLUB) Год: 1992
Страна: Япония
Студия: Studio Ghibli
Жанр: Мультфильм, Фэнтези, Мелодрама, Приключения
Продолжительность: 01:33:19

Режиссер: Хаяо Миядзаки
В ролях: Сюитиро Морияма, Токико Като, Бунси Кацура VI, Цунэхико Камидзё, Акэми Окамура, Акио Оцука, Хироко Сэки, Рэидзо Номото, Осаму Сака, Ютака Симака

Описание: Адриатика, двадцатые годы прошлого столетия. Итальянский пилот Марко Паготт храбро сражался в годы первой мировой войны. Однако после войны он разочаровался в военном деле, себе и людях, превратившись в самую настоящую свинью. В конце двадцатых, когда в Италии к власти пришли фашисты во главе с Муссолини, Марко, назвавший себя Порко Россо ("Малиновая свинья"), начал работать спасателем по найму в небе Адриатики. Его гидросамолет наводит ужас на воздушных пиратов, однако это не приносит Порко удовлетворения и душевного спокойствия...


Видео: 1920x1040, ~10797 Кбит/сек
Аудио1: AC3, 2 ch, 192 Kbps - РусскийРусский, Многоголосый (R5)
Аудио2: AC3, 2 ch, 192 Kbps - РусскийРусский, Многоголосый (Kinomania)
Аудио3: AC3, 2 ch, 448 Kbps - РусскийРусский, Двухголосый (Tycoon Studio)
Аудио4: AC3, 2 ch, 192 Kbps - РусскийРусский, Одноголосый (Гаврилов)
Аудио5: AC3, 2 ch, 192 Kbps - РусскийРусский, Одноголосый (Толстобров)
Аудио6: FLAC, 2 ch, 1273 Kbps - УкраинскийУкраинский, Многоголосый (UkrDub, G&M)
Аудио7: AC3, 2 ch, 640 Kbps - ЯпонскийЯпонский, Оригинал
Субтитры: русские (форс., полные), украинские, английские, японские

Как за пару секунд удалить ненужные аудиодорожки и субтитры (Внимание! После удаления вы не сможете поддержать раздачу)

Лог (x265 info)
x265 [info]: frame I: 1046, Avg QP:17.33 kb/s: 28004.64
x265 [info]: frame P: 27837, Avg QP:18.91 kb/s: 20084.58
x265 [info]: frame B: 105379, Avg QP:20.69 kb/s: 8170.95
x265 [info]: Weighted P-Frames: Y:12.9% UV:7.7%
x265 [info]: Weighted B-Frames: Y:9.0% UV:4.6%
x265 [info]: consecutive B-frames: 8.3% 4.6% 7.3% 27.0% 10.9% 36.7% 3.0% 0.9% 0.3% 0.2% 0.2% 0.1% 0.1% 0.1% 0.1% 0.0% 0.1%

encoded 134262 frames in 166726.26s (0.81 fps), 10795.56 kb/s, Avg QP:20.29
Медиаинфо
General
Unique ID : 52788893204170841408158962153268785499 (0x27B6C561422E657B89C88716A351315B)
Complete name : Kurenai no Buta (1992) BDRip 1080p H.265 [5xRUS_UKR_JPN] [RIPS-CLUB].mkv
Format : Matroska
Format version : Version 4
File size : 9.09 GiB
Duration : 1 h 33 min
Overall bit rate mode : Variable
Overall bit rate : 13.9 Mb/s
Movie name : Порко Россо / Кнур Багряний / Kurenai no Buta / Porco Rosso (1992)
Encoded date : UTC 2021-04-20 07:51:57
Writing application : mkvmerge v20.0.0 ('I Am The Sun') 64-bit
Writing library : libebml v1.3.5 + libmatroska v1.4.8
Cover : Yes
Attachments : Cover.jpg / AppleGaramond-Light.ttf / AppleGaramond-LightItalic.ttf / BernModB.ttf / BernModT.ttf / kdbc____.ttf / MAIAN.TTF / MTCORSVA.TTF / UNICYR.TTF / Vogue.TTF

Video
ID : 1
Format : HEVC
Format/Info : High Efficiency Video Coding
Format profile : Main 10@L4.1@High
Codec ID : V_MPEGH/ISO/HEVC
Duration : 1 h 33 min
Bit rate : 10.8 Mb/s
Width : 1 920 pixels
Height : 1 040 pixels
Display aspect ratio : 1.85:1
Frame rate mode : Constant
Frame rate : 23.976 (24000/1001) FPS
Color space : YUV
Chroma subsampling : 4:2:0
Bit depth : 10 bits
Bits/(Pixel*Frame) : 0.226
Stream size : 7.04 GiB (77%)
Title : Порко Россо / Кнур Багряний / Kurenai no Buta / Porco Rosso (1992)
Writing library : x265 3.5+1-ce882936d:[Windows][GCC 10.2.0][64 bit] 10bit
Encoding settings : cpuid=1111039 / frame-threads=3 / numa-pools=12 / wpp / no-pmode / no-pme / no-psnr / no-ssim / log-level=2 / input-csp=1 / input-res=1920x1040 / interlace=0 / total-frames=134262 / level-idc=41 / high-tier=1 / uhd-bd=0 / ref=5 / no-allow-non-conformance / no-repeat-headers / annexb / no-aud / no-hrd / info / hash=0 / no-temporal-layers / open-gop / min-keyint=23 / keyint=240 / gop-lookahead=0 / bframes=16 / b-adapt=2 / b-pyramid / bframe-bias=0 / rc-lookahead=60 / lookahead-slices=4 / scenecut=40 / hist-scenecut=0 / radl=0 / no-splice / no-intra-refresh / ctu=32 / min-cu-size=8 / rect / amp / max-tu-size=32 / tu-inter-depth=4 / tu-intra-depth=4 / limit-tu=1 / rdoq-level=2 / dynamic-rd=0.00 / no-ssim-rd / signhide / no-tskip / nr-intra=0 / nr-inter=0 / no-constrained-intra / no-strong-intra-smoothing / max-merge=5 / limit-refs=2 / limit-modes / me=3 / subme=7 / merange=57 / temporal-mvp / no-frame-dup / no-hme / weightp / weightb / no-analyze-src-pics / deblock=-3:-3 / no-sao / no-sao-non-deblock / rd=6 / selective-sao=0 / no-early-skip / no-rskip / no-fast-intra / no-tskip-fast / no-cu-lossless / no-b-intra / no-splitrd-skip / rdpenalty=0 / psy-rd=2.00 / psy-rdoq=1.00 / no-rd-refine / no-lossless / cbqpoffs=0 / crqpoffs=0 / rc=crf / crf=20.0 / qcomp=0.70 / qpstep=4 / stats-write=0 / stats-read=0 / vbv-maxrate=50000 / vbv-bufsize=50000 / vbv-init=0.9 / min-vbv-fullness=50.0 / max-vbv-fullness=80.0 / crf-max=0.0 / crf-min=0.0 / ipratio=1.40 / pbratio=1.30 / aq-mode=1 / aq-strength=1.00 / no-cutree / zone-count=0 / no-strict-cbr / qg-size=32 / no-rc-grain / qpmax=69 / qpmin=0 / no-const-vbv / sar=1 / overscan=0 / videoformat=5 / range=0 / colorprim=2 / transfer=2 / colormatrix=2 / chromaloc=0 / display-window=0 / cll=0,0 / min-luma=0 / max-luma=1023 / log2-max-poc-lsb=8 / vui-timing-info / vui-hrd-info / slices=1 / no-opt-qp-pps / no-opt-ref-list-length-pps / no-multi-pass-opt-rps / scenecut-bias=0.05 / hist-threshold=0.03 / no-opt-cu-delta-qp / no-aq-motion / no-hdr10 / no-hdr10-opt / no-dhdr10-opt / no-idr-recovery-sei / analysis-reuse-level=0 / analysis-save-reuse-level=0 / analysis-load-reuse-level=0 / scale-factor=0 / refine-intra=0 / refine-inter=0 / refine-mv=1 / refine-ctu-distortion=0 / no-limit-sao / ctu-info=0 / no-lowpass-dct / refine-analysis-type=0 / copy-pic=1 / max-ausize-factor=1.0 / no-dynamic-refine / no-single-sei / no-hevc-aq / no-svt / no-field / qp-adaptation-range=1.00 / scenecut-aware-qp=0conformance-window-offsets / right=0 / bottom=0 / decoder-max-rate=0 / no-vbv-live-multi-pass
Language : Japanese
Default : Yes
Forced : Yes

Audio #1
ID : 2
Format : AC-3
Format/Info : Audio Coding 3
Commercial name : Dolby Digital
Codec ID : A_AC3
Duration : 1 h 33 min
Bit rate mode : Constant
Bit rate : 192 kb/s
Channel(s) : 2 channels
Channel layout : L R
Sampling rate : 48.0 kHz
Frame rate : 31.250 FPS (1536 SPF)
Compression mode : Lossy
Stream size : 128 MiB (1%)
Title : AC-3 / 2.0 Ch / 192 kbps / MVO / R5
Language : Russian
Service kind : Complete Main
Default : Yes
Forced : Yes

Audio #2
ID : 3
Format : AC-3
Format/Info : Audio Coding 3
Commercial name : Dolby Digital
Codec ID : A_AC3
Duration : 1 h 33 min
Bit rate mode : Constant
Bit rate : 192 kb/s
Channel(s) : 2 channels
Channel layout : L R
Sampling rate : 48.0 kHz
Frame rate : 31.250 FPS (1536 SPF)
Compression mode : Lossy
Stream size : 128 MiB (1%)
Title : AC-3 / 2.0 Ch / 192 kbps / MVO / Kinomania
Language : Russian
Service kind : Complete Main
Default : No
Forced : No

Audio #3
ID : 4
Format : AC-3
Format/Info : Audio Coding 3
Commercial name : Dolby Digital
Format settings : Dolby Surround
Codec ID : A_AC3
Duration : 1 h 33 min
Bit rate mode : Constant
Bit rate : 448 kb/s
Channel(s) : 2 channels
Channel layout : L R
Sampling rate : 48.0 kHz
Frame rate : 31.250 FPS (1536 SPF)
Compression mode : Lossy
Stream size : 299 MiB (3%)
Title : AC-3 / 2.0 Ch / 448 kbps / DVO / Tycoon Studio
Language : Russian
Service kind : Complete Main
Default : No
Forced : No

Audio #4
ID : 5
Format : AC-3
Format/Info : Audio Coding 3
Commercial name : Dolby Digital
Codec ID : A_AC3
Duration : 1 h 33 min
Bit rate mode : Constant
Bit rate : 192 kb/s
Channel(s) : 2 channels
Channel layout : L R
Sampling rate : 48.0 kHz
Frame rate : 31.250 FPS (1536 SPF)
Compression mode : Lossy
Stream size : 128 MiB (1%)
Title : AC-3 / 2.0 Ch / 192 kbps / AVO / Гаврилов
Language : Russian
Service kind : Complete Main
Default : No
Forced : No

Audio #5
ID : 6
Format : AC-3
Format/Info : Audio Coding 3
Commercial name : Dolby Digital
Codec ID : A_AC3
Duration : 1 h 33 min
Bit rate mode : Constant
Bit rate : 192 kb/s
Channel(s) : 2 channels
Channel layout : L R
Sampling rate : 48.0 kHz
Frame rate : 31.250 FPS (1536 SPF)
Compression mode : Lossy
Stream size : 128 MiB (1%)
Title : AC-3 / 2.0 Ch / 192 kbps / AVO / Толстобров
Language : Russian
Service kind : Complete Main
Default : No
Forced : No

Audio #6
ID : 7
Format : FLAC
Format/Info : Free Lossless Audio Codec
Codec ID : A_FLAC
Duration : 1 h 33 min
Bit rate mode : Variable
Bit rate : 1 273 kb/s
Channel(s) : 2 channels
Sampling rate : 48.0 kHz
Frame rate : 11.719 FPS (4096 SPF)
Bit depth : 24 bits
Compression mode : Lossless
Stream size : 849 MiB (9%)
Title : FLAC / 2.0 Ch / 1273 kbps / MVO / UkrDub, G&M
Writing library : libFLAC 1.2.1 (UTC 2007-09-17)
Language : Ukrainian
Default : No
Forced : No

Audio #7
ID : 8
Format : AC-3
Format/Info : Audio Coding 3
Commercial name : Dolby Digital
Codec ID : A_AC3
Duration : 1 h 33 min
Bit rate mode : Constant
Bit rate : 640 kb/s
Channel(s) : 2 channels
Channel layout : L R
Sampling rate : 48.0 kHz
Frame rate : 31.250 FPS (1536 SPF)
Compression mode : Lossy
Stream size : 427 MiB (5%)
Title : AC-3 / 2.0 Ch / 640 kbps / Original
Language : Japanese
Service kind : Complete Main
Default : No
Forced : No

Text #1
ID : 9
Format : ASS
Codec ID : S_TEXT/ASS
Codec ID/Info : Advanced Sub Station Alpha
Duration : 1 h 23 min
Bit rate : 59 b/s
Count of elements : 76
Compression mode : Lossless
Stream size : 36.2 KiB (0%)
Title : Forced
Language : Russian
Default : Yes
Forced : Yes

Text #2
ID : 10
Format : ASS
Codec ID : S_TEXT/ASS
Codec ID/Info : Advanced Sub Station Alpha
Duration : 1 h 31 min
Bit rate : 185 b/s
Count of elements : 868
Compression mode : Lossless
Stream size : 124 KiB (0%)
Title : Full
Language : Russian
Default : No
Forced : No

Text #3
ID : 11
Format : ASS
Codec ID : S_TEXT/ASS
Codec ID/Info : Advanced Sub Station Alpha
Duration : 1 h 32 min
Bit rate : 96 b/s
Count of elements : 912
Compression mode : Lossless
Stream size : 65.1 KiB (0%)
Title : Full by Gedet
Language : Ukrainian
Default : No
Forced : No

Text #4
ID : 12
Format : ASS
Codec ID : S_TEXT/ASS
Codec ID/Info : Advanced Sub Station Alpha
Duration : 1 h 31 min
Bit rate : 147 b/s
Count of elements : 865
Compression mode : Lossless
Stream size : 98.4 KiB (0%)
Title : Full
Language : English
Default : No
Forced : No

Text #5
ID : 13
Format : PGS
Muxing mode : zlib
Codec ID : S_HDMV/PGS
Codec ID/Info : Picture based subtitle format used on BDs/HD-DVDs
Duration : 1 h 31 min
Bit rate : 32.5 kb/s
Count of elements : 2784
Stream size : 21.3 MiB (0%)
Title : Full
Language : Japanese
Default : No
Forced : No

Menu
00:00:00.000 : en:Chapter 1
00:05:43.176 : en:Chapter 2
00:09:16.598 : en:Chapter 3
00:15:33.182 : en:Chapter 4
00:21:43.552 : en:Chapter 5
00:27:14.925 : en:Chapter 6
00:31:34.351 : en:Chapter 7
00:36:12.128 : en:Chapter 8
00:41:49.382 : en:Chapter 9
00:44:57.570 : en:Chapter 10
00:49:01.605 : en:Chapter 11
00:54:11.290 : en:Chapter 12
00:58:46.940 : en:Chapter 13
01:04:35.705 : en:Chapter 14
01:08:55.965 : en:Chapter 15
01:14:06.901 : en:Chapter 16
01:19:09.161 : en:Chapter 17
01:24:18.512 : en:Chapter 18
01:29:23.692 : en:Chapter 19
Загрузка...Cкриншот1 Порко Россо / Kurenai no Buta (1992) BDRip 1080p [HEVC] 10 bit от -Star-Lord- (RG RIPS CLUB)Загрузка...Cкриншот2 Порко Россо / Kurenai no Buta (1992) BDRip 1080p [HEVC] 10 bit от -Star-Lord- (RG RIPS CLUB)Загрузка...Cкриншот3 Порко Россо / Kurenai no Buta (1992) BDRip 1080p [HEVC] 10 bit от -Star-Lord- (RG RIPS CLUB)Загрузка...Cкриншот4 Порко Россо / Kurenai no Buta (1992) BDRip 1080p [HEVC] 10 bit от -Star-Lord- (RG RIPS CLUB)
Релиз-группа: RIPS CLUB
Сэмпл Торрент🧲 Магнет

Рейтинги КП и IMDB, кнопки "Позвать в чате" и "Спасибо", а также мультитрекерная статистика доступны только зарегистрированным/авторизованным пользователям!

Файлы: 1
  • Kurenai no Buta (1992) BDRip 1080p H.265 [5xRUS_UKR_JPN] [RIPS-CLUB].mkv   9.09 ГБ
Поблагодарили: 7
animen67, kiocera, Kiran, mafo2, makss333, NoMaD, z_artem
StarLord
062519.09 ГБ

Добавление нового комментария

Добавление комментариев доступно только зарегистрированным/авторизованным пользователям.