💬 Мини-чат

Giggaloнет ли у кого в планах "Давайте потанцуем" 2004
GiggaloСообщение удалено (удалил: Giggalo)
StarLordOldGamer, как дела?)
StarLordOldGamer, ура, вернулся 😄
OldGamerRezident, можете скачать этот фильм от другого релизёра, там невелика разница, а раздающие точно есть
OldGamerGiggalo, https://tsya.ru/mnemonic.html
NoMaDСообщение удалено (удалил: NoMaD)
NoMaDСообщение удалено (удалил: NoMaD)
GiggaloСообщение удалено (удалил: Giggalo)
GiggaloСообщение удалено (удалил: Giggalo)
Spartanec1308Был днём
StarLordGiggalo, наверное отрубало беднягу, целый день его нету 😅
GiggaloСообщение удалено (удалил: Giggalo)
OldGamerДоброе. Работы много, некогда на перинах валяться.
GiggaloСообщение удалено (удалил: Giggalo)
GiggaloСообщение удалено (удалил: Giggalo)
  • Rezident
  • Shok
Отправка сообщений доступна только зарегистрированным/авторизованным пользователям.
Онлайн (за 10 мин.): 2

Из ада / From Hell (2001) BDRip 1080p [HEVC] 10 bit от OldGamer (RG RIPS CLUB)

HEVC
10 bit
Обложка Из ада / From Hell (2001) BDRip 1080p [HEVC] 10 bit от OldGamer (RG RIPS CLUB) Год: 2001
Страна: США, Чехия, Великобритания
Студия: 20th Century Fox Film Corporation, Underworld Entertainment
Жанр: Ужасы, Триллер, Детектив
Продолжительность: 02:02:12

Режиссер: Альберт Хьюз, Аллен Хьюз
В ролях: Джонни Депп, Хизер Грэм, Иэн Холм, Робби Колтрейн, Иэн Ричардсон, Джейсон Флеминг, Кэтрин Картлидж, Теренс Харви, Сьюзэн Линч, Пол Рис

Описание: Он - воплощение тьмы и ужаса. Он самый таинственный и знаменитый из всех серийных убийц, известных истории. Он погрузил Англию в атмосферу страха и породил массу слухов и домыслов. Убийца, который знает больше простого мясника или лаборанта. Убивая, он совершает чудовищный ритуал. Его прозвище - Джек-Потрошитель. Поймать его пытается инспектор Фред Эбберлайн. С помощью опиума он усиливает свой природный дар ясновидения и приходит к выводу, что дело Джека-Потрошителя – часть злодейского заговора, в который замешан Орден Масонов, выполняющий, в свою очередь, волю королевского дома.


Исходник: Blu-Ray Remux 1080p (TeamHD)
Видео: 1920x816 (2.35:1), 6829 Кбит/сек, HEVC (Main10@L.4.1@High)
Аудио1: AC3, 6 ch, 448 Kbps - РусскийРусский, Дублированный (R5)
Аудио2: AC3, 6 ch, 640 Kbps - РусскийРусский, Многоголосый (Карусель)
Аудио3: AC3, 6 ch, 384 Kbps - РусскийРусский, Многоголосый (DDV)
Аудио4: AC3, 2 ch, 192 Kbps - РусскийРусский, Многоголосый (LDV)
Аудио5: AC3, 6 ch, 640 Kbps - РусскийРусский, Авторский (Андрей Гаврилов)
Аудио6: AC3, 6 ch, 640 Kbps - РусскийРусский, Авторский (Леонид Векшин)
Аудио7: AC3, 2 ch, 224 Kbps - РусскийРусский, Авторский (Сергей Визгунов)
Аудио8: AC3, 6 ch, 640 Kbps - EnglishEnglish, Original
Субтитры: Русские полные (SRT), English full (SRT)

Как за пару секунд удалить ненужные аудиодорожки и субтитры (Внимание! После удаления вы не сможете поддержать раздачу)

Лог (x265 info)
x265 [info]: frame I: 739, Avg QP:16.36 kb/s: 14328.18
x265 [info]: frame P: 27418, Avg QP:17.75 kb/s: 11749.53
x265 [info]: frame B: 147649, Avg QP:19.94 kb/s: 6129.38
x265 [info]: Weighted P-Frames: Y:16.3% UV:13.3%
x265 [info]: Weighted B-Frames: Y:16.8% UV:12.1%
x265 [info]: consecutive B-frames: 1.2% 1.4% 3.3% 7.0% 7.2% 59.1% 5.4% 4.3% 4.1% 1.7% 1.9% 2.1% 0.5% 0.3% 0.6%
x265 [info]: encoded 175806 frames in 103954.69s (1.69 fps), 7040.34 kb/s, Avg QP:19.59
Медиаинфо
Общее
Уникальный идентификатор : 97143878070658350862246533459184610563 (0x49153AF976C7CE92BD0D86D0BF6A6D03)
Полное имя : \\.\Из.ада.From.Hell.2001.BDRip-HEVC.1080p.mkv
Формат : Matroska
Версия формата : Version 4
Размер файла : 9,26 Гбайт
Продолжительность : 2 ч. 2 м.
Общий поток : 10,9 Мбит/сек
Название фильма : Из.ада.From.Hell.2001.BDRip-HEVC.1080p
Дата кодирования : UTC 2021-03-31 02:59:20
Программа кодирования : mkvmerge v55.0.0 ('Waiting For Space') 64-bit
Библиотека кодирования : libebml v1.4.2 + libmatroska v1.6.4

Видео
Идентификатор : 1
Формат : HEVC
Формат/Информация : High Efficiency Video Coding
Профиль формата : Main 10@L4.1@High
Идентификатор кодека : V_MPEGH/ISO/HEVC
Продолжительность : 2 ч. 2 м.
Битрейт : 6 829 Кбит/сек
Ширина : 1 920 пикселей
Высота : 816 пикселей
Соотношение сторон : 2,35:1
Режим частоты кадров : Постоянный
Частота кадров : 23,976 (24000/1001) кадра/сек
Цветовое пространство : YUV
Субдискретизация насыщенности : 4:2:0
Битовая глубина : 10 бит
Бит/(Пиксели*Кадры) : 0.182
Размер потока : 5,83 Гбайт (63%)
Заголовок : From Hell / Rip by OldGamer
Библиотека кодирования : x265 3.5+1-ce882936d:[Windows][GCC 10.2.0][64 bit] 10bit
Настройки программы : cpuid=1111039 / frame-threads=3 / numa-pools=8 / wpp / no-pmode / no-pme / no-psnr / no-ssim / log-level=2 / input-csp=1 / input-res=1920x816 / interlace=0 / total-frames=175806 / level-idc=41 / high-tier=1 / uhd-bd=0 / ref=5 / no-allow-non-conformance / no-repeat-headers / annexb / no-aud / no-hrd / info / hash=0 / no-temporal-layers / open-gop / min-keyint=23 / keyint=240 / gop-lookahead=0 / bframes=14 / b-adapt=2 / b-pyramid / bframe-bias=0 / rc-lookahead=40 / lookahead-slices=0 / scenecut=40 / hist-scenecut=0 / radl=0 / no-splice / no-intra-refresh / ctu=32 / min-cu-size=8 / rect / amp / max-tu-size=32 / tu-inter-depth=4 / tu-intra-depth=4 / limit-tu=1 / rdoq-level=2 / dynamic-rd=0.00 / no-ssim-rd / signhide / no-tskip / nr-intra=0 / nr-inter=0 / no-constrained-intra / no-strong-intra-smoothing / max-merge=5 / limit-refs=3 / no-limit-modes / me=3 / subme=7 / merange=57 / temporal-mvp / no-frame-dup / no-hme / weightp / weightb / no-analyze-src-pics / deblock=-3:-2 / no-sao / no-sao-non-deblock / rd=6 / selective-sao=0 / no-early-skip / rskip / no-fast-intra / no-tskip-fast / no-cu-lossless / b-intra / no-splitrd-skip / rdpenalty=0 / psy-rd=1.75 / psy-rdoq=1.00 / no-rd-refine / no-lossless / cbqpoffs=0 / crqpoffs=0 / rc=crf / crf=20.0 / qcomp=0.60 / qpstep=4 / stats-write=0 / stats-read=0 / vbv-maxrate=50000 / vbv-bufsize=50000 / vbv-init=0.9 / min-vbv-fullness=50.0 / max-vbv-fullness=80.0 / crf-max=0.0 / crf-min=0.0 / ipratio=1.40 / pbratio=1.30 / aq-mode=1 / aq-strength=1.00 / no-cutree / zone-count=1 / zones: / start-frame=166309 / end-frame=175806 / qp=35 / no-strict-cbr / qg-size=32 / no-rc-grain / qpmax=69 / qpmin=0 / no-const-vbv / sar=1 / overscan=0 / videoformat=5 / range=0 / colorprim=2 / transfer=2 / colormatrix=2 / chromaloc=0 / display-window=0 / cll=0,0 / min-luma=0 / max-luma=1023 / log2-max-poc-lsb=8 / vui-timing-info / vui-hrd-info / slices=1 / no-opt-qp-pps / no-opt-ref-list-length-pps / no-multi-pass-opt-rps / scenecut-bias=0.00 / hist-threshold=0.03 / no-opt-cu-delta-qp / no-aq-motion / no-hdr10 / no-hdr10-opt / no-dhdr10-opt / no-idr-recovery-sei / analysis-reuse-level=0 / analysis-save-reuse-level=0 / analysis-load-reuse-level=0 / scale-factor=0 / refine-intra=0 / refine-inter=0 / refine-mv=1 / refine-ctu-distortion=0 / no-limit-sao / ctu-info=0 / no-lowpass-dct / refine-analysis-type=0 / copy-pic=1 / max-ausize-factor=1.0 / no-dynamic-refine / no-single-sei / no-hevc-aq / no-svt / no-field / qp-adaptation-range=1.00 / scenecut-aware-qp=0conformance-window-offsets / right=0 / bottom=0 / decoder-max-rate=0 / no-vbv-live-multi-pass
Язык : English
Default : Да
Forced : Нет

Аудио #1
Идентификатор : 2
Формат : AC-3
Формат/Информация : Audio Coding 3
Коммерческое название : Dolby Digital
Идентификатор кодека : A_AC3
Продолжительность : 2 ч. 2 м.
Вид битрейта : Постоянный
Битрейт : 448 Кбит/сек
Каналы : 6 каналов
Channel layout : L R C LFE Ls Rs
Частота : 48,0 КГц
Частота кадров : 31,250 кадров/сек (1536 SPF)
Метод сжатия : С потерями
Размер потока : 392 Мбайт (4%)
Заголовок : DUB (R5)
Язык : Russian
Service kind : Complete Main
Default : Да
Forced : Нет

Аудио #2
Идентификатор : 3
Формат : AC-3
Формат/Информация : Audio Coding 3
Коммерческое название : Dolby Digital
Идентификатор кодека : A_AC3
Продолжительность : 2 ч. 2 м.
Вид битрейта : Постоянный
Битрейт : 640 Кбит/сек
Каналы : 6 каналов
Channel layout : L R C LFE Ls Rs
Частота : 48,0 КГц
Частота кадров : 31,250 кадров/сек (1536 SPF)
Метод сжатия : С потерями
Размер потока : 559 Мбайт (6%)
Заголовок : MVO (Карусель)
Язык : Russian
Service kind : Complete Main
Default : Нет
Forced : Нет

Аудио #3
Идентификатор : 4
Формат : AC-3
Формат/Информация : Audio Coding 3
Коммерческое название : Dolby Digital
Идентификатор кодека : A_AC3
Продолжительность : 2 ч. 2 м.
Вид битрейта : Постоянный
Битрейт : 384 Кбит/сек
Каналы : 6 каналов
Channel layout : L R C LFE Ls Rs
Частота : 48,0 КГц
Частота кадров : 31,250 кадров/сек (1536 SPF)
Метод сжатия : С потерями
Размер потока : 336 Мбайт (4%)
Заголовок : MVO (DDV)
Язык : Russian
Service kind : Complete Main
Default : Нет
Forced : Нет

Аудио #4
Идентификатор : 5
Формат : AC-3
Формат/Информация : Audio Coding 3
Коммерческое название : Dolby Digital
Идентификатор кодека : A_AC3
Продолжительность : 2 ч. 2 м.
Вид битрейта : Постоянный
Битрейт : 192 Кбит/сек
Каналы : 2 канала
Channel layout : L R
Частота : 48,0 КГц
Частота кадров : 31,250 кадров/сек (1536 SPF)
Метод сжатия : С потерями
Размер потока : 168 Мбайт (2%)
Заголовок : MVO (LDV)
Язык : Russian
Service kind : Complete Main
Default : Нет
Forced : Нет

Аудио #5
Идентификатор : 6
Формат : AC-3
Формат/Информация : Audio Coding 3
Коммерческое название : Dolby Digital
Идентификатор кодека : A_AC3
Продолжительность : 2 ч. 2 м.
Вид битрейта : Постоянный
Битрейт : 640 Кбит/сек
Каналы : 6 каналов
Channel layout : L R C LFE Ls Rs
Частота : 48,0 КГц
Частота кадров : 31,250 кадров/сек (1536 SPF)
Метод сжатия : С потерями
Размер потока : 559 Мбайт (6%)
Заголовок : AVO (Андрей Гаврилов)
Язык : Russian
Service kind : Complete Main
Default : Нет
Forced : Нет

Аудио #6
Идентификатор : 7
Формат : AC-3
Формат/Информация : Audio Coding 3
Коммерческое название : Dolby Digital
Идентификатор кодека : A_AC3
Продолжительность : 2 ч. 2 м.
Вид битрейта : Постоянный
Битрейт : 640 Кбит/сек
Каналы : 6 каналов
Channel layout : L R C LFE Ls Rs
Частота : 48,0 КГц
Частота кадров : 31,250 кадров/сек (1536 SPF)
Метод сжатия : С потерями
Размер потока : 559 Мбайт (6%)
Заголовок : AVO (Леонид Векшин)
Язык : Russian
Service kind : Complete Main
Default : Нет
Forced : Нет

Аудио #7
Идентификатор : 8
Формат : AC-3
Формат/Информация : Audio Coding 3
Коммерческое название : Dolby Digital
Идентификатор кодека : A_AC3
Продолжительность : 2 ч. 2 м.
Вид битрейта : Постоянный
Битрейт : 224 Кбит/сек
Каналы : 2 канала
Channel layout : L R
Частота : 48,0 КГц
Частота кадров : 31,250 кадров/сек (1536 SPF)
Метод сжатия : С потерями
Размер потока : 196 Мбайт (2%)
Заголовок : AVO (Сергей Визгунов)
Язык : Russian
Service kind : Complete Main
Default : Нет
Forced : Нет

Аудио #8
Идентификатор : 9
Формат : AC-3
Формат/Информация : Audio Coding 3
Коммерческое название : Dolby Digital
Идентификатор кодека : A_AC3
Продолжительность : 2 ч. 2 м.
Вид битрейта : Постоянный
Битрейт : 640 Кбит/сек
Каналы : 6 каналов
Channel layout : L R C LFE Ls Rs
Частота : 48,0 КГц
Частота кадров : 31,250 кадров/сек (1536 SPF)
Метод сжатия : С потерями
Размер потока : 559 Мбайт (6%)
Язык : English
Service kind : Complete Main
Default : Нет
Forced : Нет

Текст #1
Идентификатор : 10
Формат : UTF-8
Идентификатор кодека : S_TEXT/UTF8
Идентификатор кодека/Информация : UTF-8 Plain Text
Язык : Russian
Default : Нет
Forced : Нет

Текст #2
Идентификатор : 11
Формат : UTF-8
Идентификатор кодека : S_TEXT/UTF8
Идентификатор кодека/Информация : UTF-8 Plain Text
Язык : English
Default : Нет
Forced : Нет

Меню
00:00:00.000 : en:Chasing the Dragon
00:02:00.745 : en:The Prostitutes' Problem
00:07:19.814 : en:Kidnapped
00:10:17.074 : en:A Vision of Death
00:15:16.665 : en:The New Treatment
00:18:20.891 : en:A Dead Woman
00:21:23.532 : en:A Different Breed of Killer
00:25:49.798 : en:Absinthe and Laudanum
00:31:51.242 : en:A Request For Help
00:36:35.568 : en:My Gentleman
00:41:14.972 : en:Ritual
00:45:23.637 : en:Butchers Aplenty
00:47:52.786 : en:Sir William's Advice
00:53:05.348 : en:Our Grandson's Malady
00:56:15.789 : en:Visions of Mary
00:59:33.403 : en:Special Branch
01:03:02.987 : en:Queen Annie
01:07:36.177 : en:Annie's Prince
01:11:29.576 : en:The Secret Ceremony
01:16:17.823 : en:Still a Woman
01:19:29.598 : en:The Surgeon's Assistant
01:20:53.473 : en:Unfinished Business
01:25:21.908 : en:Find a Scapegoat
01:26:31.185 : en:The Writing on the Wall
01:32:43.265 : en:The Freemasons
01:34:33.834 : en:Below the Skin
01:38:58.932 : en:The Ripper's Prisoner
01:40:27.145 : en:The Last Victim
01:45:57.017 : en:You're Being Watched
01:49:40.115 : en:Judgment
01:51:48.993 : en:Abberline's Choice
01:55:38.556 : en:End Titles
Загрузка...Cкриншот1 Из ада / From Hell (2001) BDRip 1080p [HEVC] 10 bit от OldGamer (RG RIPS CLUB)Загрузка...Cкриншот2 Из ада / From Hell (2001) BDRip 1080p [HEVC] 10 bit от OldGamer (RG RIPS CLUB)Загрузка...Cкриншот3 Из ада / From Hell (2001) BDRip 1080p [HEVC] 10 bit от OldGamer (RG RIPS CLUB)Загрузка...Cкриншот4 Из ада / From Hell (2001) BDRip 1080p [HEVC] 10 bit от OldGamer (RG RIPS CLUB)
Релиз-группа: RIPS CLUB
Сэмпл Торрент🧲 Магнет

Рейтинги КП и IMDB, кнопки "Позвать в чате" и "Спасибо", а также мультитрекерная статистика доступны только зарегистрированным/авторизованным пользователям!

Файлы: 1
  • Из.ада.From.Hell.2001.BDRip-HEVC.1080p.mkv   9.26 ГБ
Поблагодарили: 15
Alex302, alexyak, diesel0000, donadar, InSpector, Kilop77, Kiran, ko1ob, mafo2, makss333, NoMaD, Nuclear70, StarLord, Tony, VadimM
OldGamer
01671319.26 ГБ

Добавление нового комментария

Добавление комментариев доступно только зарегистрированным/авторизованным пользователям.